+ ShareSpark.net »  :::: Hollywood Zone » Hollywood Movies (Original Rips) » High Resolution Movies
|- Spider-Man: Homecoming (2017) 1080p WEB-DL DD 5.1 H.264 [FGT]


Spider-Man: Homecoming (2017) 1080p WEB-DL DD 5.1 H.264 [FGT]

0 Members and 1 Guest are viewing this topic.

September 26, 2017, 02:37:57 PM
  • Begginer
  • **
  • Topic Author
  • Thank You: 26
  • Reputation: 6
  • Activity:
    17.6%
  • Country: pk
  • Posts: 90
  • Topics: 68
  • Join Date: Aug 2017
  • ShareSpark Member
Spider-Man: Homecoming (2017) 1080p WEB-DL DD 5.1 H.264 [FGT]




 :info:
Video
ID                                       : 1
Format                                   : AVC
Format/Info                              : Advanced Video Codec
Format profile                           : [email protected]
Format settings, CABAC                   : Yes
Format settings, ReFrames                : 5 frames
Codec ID                                 : V_MPEG4/ISO/AVC
Duration                                 : 2 h 13 min
Bit rate                                 : 4 426 kb/s
Width                                    : 1 920 pixels
Height                                   : 800 pixels
Display aspect ratio                     : 2.40:1
Frame rate mode                          : Constant
Frame rate                               : 23.976 (24000/1001) FPS
Color space                              : YUV
Chroma subsampling                       : 4:2:0
Bit depth                                : 8 bits
Scan type                                : Progressive
Bits/(Pixel*Frame)                       : 0.120
Stream size                              : 4.13 GiB (90%)
Title                                    : Spider-Man.Homecoming.2017.1080p.WEB-DL.DD5.1.H264-FGT
Language                                 : English
Default                                  : Yes
Forced                                   : No
Color range                              : Limited
Color primaries                          : BT.709
Transfer characteristics                 : BT.709
Matrix coefficients                      : BT.709

Audio
ID                                       : 2
Format                                   : AC-3
Format/Info                              : Audio Coding 3
Format settings, Endianness              : Big
Codec ID                                 : A_AC3
Duration                                 : 2 h 13 min
Bit rate mode                            : Constant
Bit rate                                 : 384 kb/s
Channel(s)                               : 6 channels
Channel positions                        : Front: L C R, Side: L R, LFE
Sampling rate                            : 48.0 kHz
Frame rate                               : 31.250 FPS (1536 spf)
Bit depth                                : 16 bits
Compression mode                         : Lossy
Delay relative to video                  : -42 ms
Stream size                              : 367 MiB (8%)
Title                                    : Spider-Man.Homecoming.2017.1080p.WEB-DL.DD5.1.H264-FGT
Language                                 : English
Service kind                             : Complete Main
Default                                  : Yes
Forced                                   : No

Text
ID                                       : 3
Format                                   : UTF-8
Codec ID                                 : S_TEXT/UTF8
Codec ID/Info                            : UTF-8 Plain Text
Language                                 : English
Default                                  : Yes
Forced                                   : No

Menu
00:00:00.000                             : en:1
00:05:33.083                             : en:2
00:14:23.279                             : en:3
00:20:49.999                             : en:4
00:26:18.243                             : en:5
00:36:26.976                             : en:6
00:46:02.926                             : en:7
00:54:39.192                             : en:8
01:05:09.280                             : en:9
01:12:02.276                             : en:10
01:20:19.189                             : en:11
01:29:40.542                             : en:12
01:36:55.894                             : en:13
01:44:43.152                             : en:14
01:50:30.249                             : en:15
01:57:52.566                             : en:16


 :ss:
***Click on the Screenshots to Enlarge Them***



***Click on the Screenshots to Enlarge Them*** :yahoo: :download: :yahoo:




Share this topic on FacebookShare this topic on GoogleShare this topic on MySpaceShare this topic on TwitterShare this topic on Yahoo

« Last Edit: September 26, 2017, 06:27:24 PM by ARAhmed »



Tags:
 

Related Topics

  Subject / Started by Replies Last post
0 Replies
191 Views
Last post September 26, 2017, 02:54:02 PM
by ARAhmed
2 Replies
311 Views
Last post September 26, 2017, 08:30:19 PM
by ARAhmed
0 Replies
220 Views
Last post September 26, 2017, 09:48:44 PM
by Rάήνίјάч1234
0 Replies
214 Views
Last post September 27, 2017, 07:48:54 AM
by ♥[--K4Krish--]♥
0 Replies
255 Views
Last post September 27, 2017, 12:58:45 PM
by ARAhmed




Back to top