+ ShareSpark.net »  :::: Hollywood Zone » Hollywood Movies (Original Rips) » High Resolution Movies
|- Spider-Man Homecoming 2017 720p WEB-DL XviD AC3-FGT

10% Off with Visa

Spider-Man Homecoming 2017 720p WEB-DL XviD AC3-FGT

0 Members and 1 Guest are viewing this topic.

September 26, 2017, 02:58:49 PM
  • Global Moderator
  • Legend Member
  • *****
  • Topic Author
  • Thank You: 7616
  • Reputation: 1676
  • Activity:
    100%
  • Country: in
  • Posts: 4512
  • Topics: 3760
  • Join Date: Jan 2014
  • ıllıllı ѕмoĸιng ιѕ good ғor нealтн ıllıllı :)
Spider-Man Homecoming 2017 720p WEB-DL XviD AC3-FGT




Quote
Video
ID                                       : 0
Format                                   : MPEG-4 Visual
Format profile                           : [email protected]
Format settings, BVOP                    : No
Format settings, QPel                    : No
Format settings, GMC                     : No warppoints
Format settings, Matrix                  : Default (H.263)
Codec ID                                 : XVID
Codec ID/Hint                            : XviD
Duration                                 : 2 h 13 min
Bit rate                                 : 3 778 kb/s
Width                                    : 1 280 pixels
Height                                   : 534 pixels
Display aspect ratio                     : 2.40:1
Frame rate                               : 23.976 (24000/1001) FPS
Color space                              : YUV
Chroma subsampling                       : 4:2:0
Bit depth                                : 8 bits
Scan type                                : Progressive
Compression mode                         : Lossy
Bits/(Pixel*Frame)                       : 0.231
Stream size                              : 3.52 GiB (91%)
Writing library                          : Lavc57.89.100

Audio
ID                                       : 1
Format                                   : AC-3
Format/Info                              : Audio Coding 3
Format settings, Endianness              : Big
Codec ID                                 : 2000
Duration                                 : 2 h 13 min
Bit rate mode                            : Constant
Bit rate                                 : 384 kb/s
Channel(s)                               : 6 channels
Channel positions                        : Front: L C R, Side: L R, LFE
Sampling rate                            : 48.0 kHz
Frame rate                               : 31.250 FPS (1536 spf)
Bit depth                                : 16 bits
Compression mode                         : Lossy
Stream size                              : 367 MiB (9%)
Alignment                                : Aligned on interleaves
Interleave, duration                     : 42  ms (1.00 video frame)
Interleave, preload duration             : 512  ms
Service kind                             : Complete Main

:ss:






:download:

Quote









File Leeched & Uploaded From




Don't walk as you are king, walk as you don't care who the king is....!!
Never argue with an idiot. They drag you down to their level and then beat you with experience?

Share this topic on FacebookShare this topic on GoogleShare this topic on MySpaceShare this topic on TwitterShare this topic on Yahoo

« Last Edit: October 03, 2017, 07:46:30 AM by тнє ωαll 81317 »



Don't walk as you are king, walk as you don't care who the king is....!!

Thanks given by:


Tags:
 

Related Topics

  Subject / Started by Replies Last post
1 Replies
964 Views
Last post July 11, 2017, 06:16:00 AM
by 1974477447
0 Replies
566 Views
Last post July 22, 2017, 10:41:37 AM
by ★ iamPK ★
0 Replies
277 Views
Last post September 26, 2017, 01:33:26 PM
by Rάήνίјάч1234
0 Replies
346 Views
Last post October 03, 2017, 04:15:04 AM
by PSYCHO
0 Replies
533 Views
Last post October 03, 2017, 06:51:32 AM
by PSYCHO



Back to top