+ ShareSpark.net »  :::: Hollywood Zone » Hollywood Movies (Original Rips) » High Resolution Movies
|- The House (2017) 1080p BRRip 6CH [MkvCage]


New Promotions of ShareSpark Member's (January 2018) New
Tag users in topic | Receive notifications when you are tagged

The House (2017) 1080p BRRip 6CH [MkvCage]

0 Members and 1 Guest are viewing this topic.

September 27, 2017, 01:50:05 PM
  • Begginer
  • **
  • Topic Author
  • Thank You: 26
  • Reputation: 6
  • Activity:
    17.6%
  • Country: pk
  • Posts: 90
  • Topics: 68
  • Join Date: Aug 2017
  • ShareSpark Member
The House (2017) 1080p BRRip 6CH [MkvCage]




 :info:
Format                      : Matroska
Format version              : Version 4 / Version 2
File size                   : 1.75 GiB
Duration                    : 1 h 28 min
Overall bit rate            : 2 843 kb/s
Movie name                  : The.House.2017.1080p.BRRip.6CH.MkvCage
Encoded date                : UTC 2017-09-27 06:34:54
Writing application         : mkvmerge v13.0.0 ('The Juggler') 32bit
Writing library             : libebml v1.3.4 + libmatroska v1.4.5
 
Video
ID                          : 2
Format                      : AVC
Format/Info                 : Advanced Video Codec
Format profile              : [email protected]
Format settings, CABAC      : Yes
Format settings, RefFrames  : 5 frames
Codec ID                    : V_MPEG4/ISO/AVC
Duration                    : 1 h 28 min
Bit rate                    : 2 650 kb/s
Width                       : 1 920 pixels
Height                      : 800 pixels
Display aspect ratio        : 2.40:1
Frame rate mode             : Constant
Frame rate                  : 23.976 (24000/1001) FPS
Color space                 : YUV
Chroma subsampling          : 4:2:0
Bit depth                   : 8 bits
Scan type                   : Progressive
Bits/(Pixel*Frame)          : 0.072
Stream size                 : 1.63 GiB (93%)
Writing library             : x264 core 148 r2708 86b7198
Encoding settings           : cabac=1 / ref=5 / deblock=1:0:0 / analyse=0x3:0x133 / me=umh / subme=9 / psy=1 / psy_rd=1.00:0.00 / mixed_ref=1 / me_range=16 / chroma_me=1 / trellis=2 / 8x8dct=1 / cqm=0 / deadzone=21,11 / fast_pskip=1 / chroma_qp_offset=-2 / threads=25 / lookahead_threads=2 / sliced_threads=0 / nr=0 / decimate=1 / interlaced=0 / bluray_compat=0 / constrained_intra=0 / bframes=3 / b_pyramid=2 / b_adapt=2 / b_bias=0 / direct=3 / weightb=1 / open_gop=0 / weightp=2 / keyint=240 / keyint_min=24 / scenecut=40 / intra_refresh=0 / rc_lookahead=60 / rc=2pass / mbtree=1 / bitrate=2650 / ratetol=1.0 / qcomp=0.60 / qpmin=0 / qpmax=69 / qpstep=4 / cplxblur=20.0 / qblur=0.5 / vbv_maxrate=62500 / vbv_bufsize=78125 / nal_hrd=none / filler=0 / ip_ratio=1.40 / aq=1:1.00
Default                     : Yes
Forced                      : No
Color range                 : Limited
Color primaries             : BT.709
Transfer characteristics    : BT.709
Matrix coefficients         : BT.709
 
Audio
ID                          : 1
Format                      : AAC
Format/Info                 : Advanced Audio Codec
Format profile              : HE-AAC / LC
Codec ID                    : A_AAC
Duration                    : 1 h 28 min
Bit rate                    : 192 kb/s
Channel(s)                  : 6 channels
Channel positions           : Front: L C R, Side: L R, LFE
Sampling rate               : 48.0 kHz / 24.0 kHz
Frame rate                  : 23.438 FPS (1024 SPF)
Compression mode            : Lossy
Delay relative to video     : 31 ms
Stream size                 : 121 MiB (7%)
Language                    : English
Default                     : Yes
Forced                      : No
 
Text
ID                          : 3
Format                      : UTF-8
Codec ID                    : S_TEXT/UTF8
Codec ID/Info               : UTF-8 Plain Text
Duration                    : 1 h 27 min
Bit rate                    : 101 b/s
Count of elements           : 1987
Stream size                 : 65.1 KiB (0%)
Language                    : English
Default                     : Yes
Forced                      : No


 :ss:
***Click on the Screenshots to Enlarge Them***

***Click on the Screenshots to Enlarge Them*** :yahoo: :download: :yahoo:







Share this topic on FacebookShare this topic on GoogleShare this topic on MySpaceShare this topic on TwitterShare this topic on Yahoo




Tags: the house 2017 1080p BRRIP 6CH mkvcage 
 

Related Topics

  Subject / Started by Replies Last post
0 Replies
261 Views
Last post August 28, 2017, 08:14:22 AM
by RoBi007
0 Replies
156 Views
Last post September 12, 2017, 09:02:45 PM
by PSYCHO
0 Replies
212 Views
Last post September 27, 2017, 01:44:19 PM
by ARAhmed
0 Replies
240 Views
Last post October 08, 2017, 10:40:27 AM
by ♥[--K4Krish--]♥
0 Replies
154 Views
Last post November 24, 2017, 12:23:53 AM
by PSYCHO




Back to top