+ ShareSpark.net »  :::: Hollywood Zone » Hollywood Movies (Original Rips) » High Resolution Movies
|- Wish Upon (2017) UNRATED 1080p BluRay H264 AAC 1.74 GB - RARBG

Pantry 600 Back

Wish Upon (2017) UNRATED 1080p BluRay H264 AAC 1.74 GB - RARBG

0 Members and 1 Guest are viewing this topic.

September 28, 2017, 10:51:41 AM
  • ♫♫♣ B૦ՐՈ T૦ H૯Նƿ ♣♫♫
  • Global Moderator
  • Legend Member
  • *****
  • Topic Author
  • Thank You: 1096
  • Reputation: 725
  • Activity:
    0.2%
  • Country: dk
  • Posts: 2712
  • Topics: 1192
  • Join Date: Jan 2013
  • ♠§§ Dσп'т Tαʟκ Jυƨт Acт §§ Dσп'т Sαч Jυƨт Sнσш §§♠
:title:
Wish Upon (2017) UNRATED 1080p BluRay H264 AAC - RARBG




:info:
Video
ID                                       : 1
Format                                   : AVC
Format/Info                              : Advanced Video Codec
Format profile                           : [email protected]
Format settings, CABAC                   : Yes
Format settings, ReFrames                : 4 frames
Codec ID                                 : avc1
Codec ID/Info                            : Advanced Video Coding
Duration                                 : 1h 30mn
Bit rate                                 : 2 500 Kbps
Width                                    : 1 920 pixels
Height                                   : 800 pixels
Display aspect ratio                     : 2.40:1
Frame rate mode                          : Constant
Frame rate                               : 23.976 (23976/1000) fps
Color space                              : YUV
Chroma subsampling                       : 4:2:0
Bit depth                                : 8 bits
Scan type                                : Progressive
Bits/(Pixel*Frame)                       : 0.068
Stream size                              : 1.59 GiB (92%)
Encoded date                             : UTC 2017-09-28 02:20:32
Tagged date                              : UTC 2017-09-28 02:20:32

Audio
ID                                       : 2
Format                                   : AAC
Format/Info                              : Advanced Audio Codec
Format profile                           : LC
Codec ID                                 : 40
Duration                                 : 1h 30mn
Bit rate mode                            : Constant
Bit rate                                 : 224 Kbps
Channel(s)                               : 2 channels
Channel(s)_Original                      : 6 channels
Channel positions                        : Front: L C R, Side: L R, LFE
Sampling rate                            : 48.0 KHz
Frame rate                               : 46.875 fps (1024 spf)
Compression mode                         : Lossy
Stream size                              : 146 MiB (8%)
Language                                 : English
Default                                  : Yes
Alternate group                          : 1
Encoded date                             : UTC 2017-09-28 02:20:32
Tagged date                              : UTC 2017-09-28 02:20:32


:ss:







:download:







Share this topic on FacebookShare this topic on GoogleShare this topic on MySpaceShare this topic on TwitterShare this topic on Yahoo




If U like any post, then say thanks 2 d uploader by posting in his topic, adding thanks & reputes 2 him.:)

Tags:
 

Related Topics

  Subject / Started by Replies Last post
0 Replies
556 Views
Last post May 09, 2015, 01:15:09 PM
by ddr_mizu
0 Replies
305 Views
Last post August 18, 2017, 08:33:04 AM
by Rάήνίјάч1234
1 Replies
442 Views
Last post August 18, 2017, 11:10:34 AM
by ~~Ank!t~~
0 Replies
394 Views
Last post October 07, 2017, 08:23:12 AM
by ♥[--K4Krish--]♥
0 Replies
355 Views
Last post October 15, 2017, 04:15:47 AM
by ♥[--K4Krish--]♥



Back to top