+ ShareSpark.net »  :::: Hollywood Zone » Hollywood Movies (Original Rips) » High Resolution Movies
|- Message from the King (2016) 720p BluRay x264 - PSYCHD [4.37GB]


New Promotions of ShareSpark Member's (January 2018) New
Tag users in topic | Receive notifications when you are tagged

Message from the King (2016) 720p BluRay x264 - PSYCHD [4.37GB]

0 Members and 1 Guest are viewing this topic.

September 29, 2017, 05:19:40 AM
  • ♫♫♣ B૦ՐՈ T૦ H૯Նƿ ♣♫♫
  • Global Moderator
  • Legend Member
  • *****
  • Topic Author
  • Thank You: 1085
  • Reputation: 725
  • Activity:
    73.2%
  • Country: dk
  • Posts: 2711
  • Topics: 1192
  • Join Date: Jan 2013
  • ♠§§ Dσп'т Tαʟκ Jυƨт Acт §§ Dσп'т Sαч Jυƨт Sнσш §§♠
:title:
Message from the King (2016) 720p BluRay x264 - PSYCHD




:info:
Video
ID                                       : 1
Format                                   : AVC
Format/Info                              : Advanced Video Codec
Format profile                           : [email protected]
Format settings, CABAC                   : Yes
Format settings, ReFrames                : 5 frames
Codec ID                                 : V_MPEG4/ISO/AVC
Duration                                 : 1h 42mn
Bit rate                                 : 4 584 Kbps
Width                                    : 1 280 pixels
Height                                   : 536 pixels
Display aspect ratio                     : 2.40:1
Frame rate mode                          : Constant
Frame rate                               : 24.000 fps
Color space                              : YUV
Chroma subsampling                       : 4:2:0
Bit depth                                : 8 bits
Scan type                                : Progressive
Bits/(Pixel*Frame)                       : 0.278
Stream size                              : 3.20 GiB (73%)
Writing library                          : x264 core 152 r2851 ba24899
Default                                  : Yes
Forced                                   : No
Statistics Tags Issue                    : no_variable_data 1970-01-01 00:00:00 / no_variable_data 2010-02-22 21:41:29
FromStats_BitRate                        : 4584097
FromStats_Duration                       : 01:42:34.042000000
FromStats_FrameCount                     : 147697
FromStats_StreamSize                     : 3526340966

Audio
ID                                       : 2
Format                                   : DTS
Format/Info                              : Digital Theater Systems
Mode                                     : 16
Format settings, Endianness              : Big
Codec ID                                 : A_DTS
Duration                                 : 1h 42mn
Bit rate mode                            : Constant
Bit rate                                 : 1 509 Kbps
Channel(s)                               : 6 channels
Channel positions                        : Front: L C R, Side: L R, LFE
Sampling rate                            : 48.0 KHz
Frame rate                               : 93.750 fps (512 spf)
Bit depth                                : 24 bits
Compression mode                         : Lossy
Stream size                              : 1.08 GiB (25%)
Language                                 : English
Default                                  : Yes
Forced                                   : No


:ss:


:download:








Share this topic on FacebookShare this topic on GoogleShare this topic on MySpaceShare this topic on TwitterShare this topic on Yahoo

« Last Edit: September 29, 2017, 05:30:50 AM by ♥[--K4Krish--]♥ »



If U like any post, then say thanks 2 d uploader by posting in his topic, adding thanks & reputes 2 him.:)

Thanks given by:


Tags:
 

Related Topics

  Subject / Started by Replies Last post
0 Replies
422 Views
Last post December 26, 2016, 05:25:21 PM
by PSYCHO
0 Replies
187 Views
Last post February 11, 2017, 06:45:08 PM
by PSYCHO
0 Replies
217 Views
Last post August 06, 2017, 12:34:17 PM
by тнє ωαll 81317
0 Replies
147 Views
Last post September 29, 2017, 12:51:01 PM
by PSYCHO
0 Replies
155 Views
Last post September 30, 2017, 10:19:07 AM
by ARAhmed




Back to top