+ ShareSpark.net »  :::: Hollywood Zone » Hollywood Movies (Original Rips) » High Resolution Movies
|- Baby Driver (2017) 1080p BluRay AC3 6CH [MkvCage]


New Promotions of ShareSpark Member's (January 2018) New
Tag users in topic | Receive notifications when you are tagged

Baby Driver (2017) 1080p BluRay AC3 6CH [MkvCage]

0 Members and 1 Guest are viewing this topic.

September 30, 2017, 12:27:05 PM
  • Begginer
  • **
  • Topic Author
  • Thank You: 26
  • Reputation: 6
  • Activity:
    17.6%
  • Country: pk
  • Posts: 90
  • Topics: 68
  • Join Date: Aug 2017
  • ShareSpark Member
Baby Driver (2017) 1080p BluRay AC3 6CH [MkvCage]




 :info:
Format                      : Matroska
Format version              : Version 4 / Version 2
File size                   : 3.02 GiB
Duration                    : 1 h 52 min
Overall bit rate            : 3 835 kb/s
Movie name                  : Baby.Driver.2017.1080p.BluRay.AC3.6CH.3GB.MkvCage
Encoded date                : UTC 2017-09-30 05:05:00
Writing application         : mkvmerge v13.0.0 ('The Juggler') 32bit
Writing library             : libebml v1.3.4 + libmatroska v1.4.5
 
Video
ID                          : 2
Format                      : AVC
Format/Info                 : Advanced Video Codec
Format profile              : [email protected]
Format settings, CABAC      : Yes
Format settings, RefFrames  : 5 frames
Codec ID                    : V_MPEG4/ISO/AVC
Duration                    : 1 h 52 min
Bit rate                    : 3 449 kb/s
Width                       : 1 920 pixels
Height                      : 802 pixels
Display aspect ratio        : 2.40:1
Frame rate mode             : Constant
Frame rate                  : 23.976 (24000/1001) FPS
Color space                 : YUV
Chroma subsampling          : 4:2:0
Bit depth                   : 8 bits
Scan type                   : Progressive
Bits/(Pixel*Frame)          : 0.093
Stream size                 : 2.71 GiB (90%)
Writing library             : x264 core 142 r2431+42 c69a006 tMod [[email protected] X86_64]
Encoding settings           : cabac=1 / ref=5 / deblock=1:-3:-3 / analyse=0x3:0x133 / me=umh / subme=11 / psy=1 / fade_compensate=0.00 / psy_rd=0.90:0.00 / mixed_ref=1 / me_range=32 / chroma_me=1 / trellis=2 / 8x8dct=1 / cqm=0 / deadzone=21,11 / fast_pskip=0 / chroma_qp_offset=-2 / threads=60 / lookahead_threads=6 / sliced_threads=0 / nr=0 / decimate=0 / interlaced=0 / bluray_compat=0 / constrained_intra=0 / fgo=0 / bframes=8 / b_pyramid=2 / b_adapt=2 / b_bias=0 / direct=3 / weightb=1 / open_gop=0 / weightp=2 / keyint=240 / keyint_min=23 / scenecut=40 / intra_refresh=0 / rc_lookahead=60 / rc=2pass / mbtree=0 / bitrate=3449 / ratetol=1.0 / qcomp=0.60 / qpmin=0:0:0 / qpmax=69:69:69 / qpstep=4 / cplxblur=20.0 / qblur=0.5 / vbv_maxrate=40000 / vbv_bufsize=30000 / nal_hrd=none / filler=0 / ip_ratio=1.40 / pb_ratio=1.30 / aq=1:0.90 / aq-sensitivity=10.00 / aq-factor=1.00:1.00:1.00 / aq2=0 / aq3=0
Default                     : Yes
Forced                      : No
 
Audio
ID                          : 1
Format                      : AC-3
Format/Info                 : Audio Coding 3
Format settings, Endianness : Big
Codec ID                    : A_AC3
Duration                    : 1 h 52 min
Bit rate mode               : Constant
Bit rate                    : 384 kb/s
Channel(s)                  : 6 channels
Channel positions           : Front: L C R, Side: L R, LFE
Sampling rate               : 48.0 kHz
Frame rate                  : 31.250 FPS (1536 SPF)
Bit depth                   : 16 bits
Compression mode            : Lossy
Stream size                 : 309 MiB (10%)
Language                    : English
Service kind                : Complete Main
Default                     : Yes
Forced                      : No
 
Text
ID                          : 3
Format                      : UTF-8
Codec ID                    : S_TEXT/UTF8
Codec ID/Info               : UTF-8 Plain Text
Duration                    : 1 h 50 min
Bit rate                    : 60 b/s
Count of elements           : 1555
Stream size                 : 48.6 KiB (0%)
Language                    : English
Default                     : Yes
Forced                      : No


 :ss:
***Click on the Screenshots to Enlarge Them***

***Click on the Screenshots to Enlarge Them*** :yahoo: :download: :yahoo:




Share this topic on FacebookShare this topic on GoogleShare this topic on MySpaceShare this topic on TwitterShare this topic on Yahoo



Thanks given by:


Tags: AC3 6CH 
 

Related Topics

  Subject / Started by Replies Last post
1 Replies
457 Views
Last post July 16, 2017, 07:11:31 PM
by ~DoSANJiT
0 Replies
600 Views
Last post August 06, 2017, 01:10:40 PM
by ~~Ank!t~~
1 Replies
316 Views
Last post September 12, 2017, 08:23:09 PM
by azhar0300♥♫
0 Replies
224 Views
Last post September 26, 2017, 03:33:19 PM
by ARAhmed
0 Replies
138 Views
Last post December 03, 2017, 05:22:34 AM
by PSYCHO




Back to top