+ ShareSpark.net »  :::: Hollywood Zone » Hollywood Movies (Original Rips) » High Resolution Movies
|- An Ordinary Man (2017) 1080p WEB-DL DD5.1 H264 - FGT [3.15 GB]


10% SBI and 10% Discount

An Ordinary Man (2017) 1080p WEB-DL DD5.1 H264 - FGT [3.15 GB]

0 Members and 1 Guest are viewing this topic.

October 02, 2017, 07:27:21 PM
  • ♫♫♣ B૦ՐՈ T૦ H૯Նƿ ♣♫♫
  • Global Moderator
  • Legend Member
  • *****
  • Topic Author
  • Thank You: 1103
  • Reputation: 725
  • Activity:
    0%
  • Country: dk
  • Posts: 2712
  • Topics: 1192
  • Join Date: Jan 2013
  • ♠§§ Dσп'т Tαʟκ Jυƨт Acт §§ Dσп'т Sαч Jυƨт Sнσш §§♠
:title:
An Ordinary Man (2017) 1080p WEB-DL DD5.1 H264 - FGT




:info:
Video
ID                                       : 1
Format                                   : AVC
Format/Info                              : Advanced Video Codec
Format profile                           : [email protected]
Format settings, CABAC                   : Yes
Format settings, ReFrames                : 5 frames
Codec ID                                 : V_MPEG4/ISO/AVC
Duration                                 : 1 h 30 min
Bit rate                                 : 4 501 kb/s
Width                                    : 1 918 pixels
Height                                   : 856 pixels
Display aspect ratio                     : 2.25:1
Frame rate mode                          : Constant
Frame rate                               : 23.976 (24000/1001) FPS
Color space                              : YUV
Chroma subsampling                       : 4:2:0
Bit depth                                : 8 bits
Scan type                                : Progressive
Bits/(Pixel*Frame)                       : 0.114
Stream size                              : 2.85 GiB (90%)
Title                                    : An.Ordinary.Man.2017.1080p.WEB-DL.DD5.1.H264-FGT
Language                                 : English
Default                                  : Yes
Forced                                   : No
Color range                              : Limited
Color primaries                          : BT.709
Transfer characteristics                 : BT.709
Matrix coefficients                      : BT.709

Audio
ID                                       : 2
Format                                   : AC-3
Format/Info                              : Audio Coding 3
Format settings, Endianness              : Big
Codec ID                                 : A_AC3
Duration                                 : 1 h 30 min
Bit rate mode                            : Constant
Bit rate                                 : 384 kb/s
Channel(s)                               : 6 channels
Channel positions                        : Front: L C R, Side: L R, LFE
Sampling rate                            : 48.0 kHz
Frame rate                               : 31.250 FPS (1536 spf)
Bit depth                                : 16 bits
Compression mode                         : Lossy
Stream size                              : 249 MiB (8%)
Title                                    : An.Ordinary.Man.2017.1080p.WEB-DL.DD5.1.H264-FGT
Language                                 : English
Service kind                             : Complete Main
Default                                  : Yes
Forced                                   : No



:ss:








:download:







Share this topic on FacebookShare this topic on GoogleShare this topic on MySpaceShare this topic on TwitterShare this topic on Yahoo

« Last Edit: October 02, 2017, 07:37:54 PM by ♥[--K4Krish--]♥ »



If U like any post, then say thanks 2 d uploader by posting in his topic, adding thanks & reputes 2 him.:)

Tags:
 

Related Topics

  Subject / Started by Replies Last post
0 Replies
487 Views
Last post June 20, 2013, 10:24:52 AM
by lovely1629
0 Replies
513 Views
Last post May 19, 2017, 04:52:39 PM
by Rάήνίјάч1234
0 Replies
338 Views
Last post October 02, 2017, 04:54:44 PM
by ♥[--K4Krish--]♥
0 Replies
335 Views
Last post October 02, 2017, 05:46:24 PM
by ♥[--K4Krish--]♥
0 Replies
295 Views
Last post October 02, 2017, 06:25:47 PM
by kiteflyy




Back to top