+ ShareSpark.net »  :::: Hollywood Zone » Hollywood Movies (Original Rips) » High Resolution Movies
|- Spider-Man: Homecoming (2017) 1080p BRRip 6CH [MkvCage]


Spider-Man: Homecoming (2017) 1080p BRRip 6CH [MkvCage]

0 Members and 1 Guest are viewing this topic.

October 03, 2017, 01:03:31 PM
  • Begginer
  • **
  • Topic Author
  • Thank You: 26
  • Reputation: 6
  • Activity:
    17.6%
  • Country: pk
  • Posts: 90
  • Topics: 68
  • Join Date: Aug 2017
  • ShareSpark Member
Spider-Man: Homecoming (2017) 1080p BRRip 6CH [MkvCage]




 :info:
Format                      : Matroska
Format version              : Version 4 / Version 2
File size                   : 2.51 GiB
Duration                    : 2 h 13 min
Overall bit rate            : 2 692 kb/s
Movie name                  : Man.Homecoming.2017.1080p.BRRip.6CH.MkvCage
Encoded date                : UTC 2017-10-03 02:26:22
Writing application         : mkvmerge v13.0.0 ('The Juggler') 32bit
Writing library             : libebml v1.3.4 + libmatroska v1.4.5
 
Video
ID                          : 4
Format                      : AVC
Format/Info                 : Advanced Video Codec
Format profile              : [email protected]
Format settings, CABAC      : Yes
Format settings, RefFrames  : 5 frames
Codec ID                    : V_MPEG4/ISO/AVC
Duration                    : 2 h 13 min
Bit rate                    : 2 499 kb/s
Width                       : 1 920 pixels
Height                      : 808 pixels
Display aspect ratio        : 2.40:1
Frame rate mode             : Constant
Frame rate                  : 23.976 (24000/1001) FPS
Color space                 : YUV
Chroma subsampling          : 4:2:0
Bit depth                   : 8 bits
Scan type                   : Progressive
Bits/(Pixel*Frame)          : 0.067
Stream size                 : 2.33 GiB (93%)
Writing library             : x264 core 133 r2334 a3ac64b
Encoding settings           : cabac=1 / ref=5 / deblock=1:-1:-1 / analyse=0x3:0x113 / me=umh / subme=8 / psy=1 / psy_rd=1.00:0.00 / mixed_ref=1 / me_range=16 / chroma_me=1 / trellis=1 / 8x8dct=1 / cqm=0 / deadzone=21,11 / fast_pskip=1 / chroma_qp_offset=-2 / threads=48 / lookahead_threads=6 / sliced_threads=0 / nr=0 / decimate=1 / interlaced=0 / bluray_compat=0 / constrained_intra=0 / bframes=3 / b_pyramid=2 / b_adapt=2 / b_bias=0 / direct=3 / weightb=1 / open_gop=0 / weightp=2 / keyint=240 / keyint_min=23 / scenecut=40 / intra_refresh=0 / rc_lookahead=50 / rc=2pass / mbtree=1 / bitrate=2499 / ratetol=1.0 / qcomp=0.60 / qpmin=10 / qpmax=51 / qpstep=4 / cplxblur=20.0 / qblur=0.5 / vbv_maxrate=62500 / vbv_bufsize=78125 / nal_hrd=none / ip_ratio=1.40 / aq=1:1.00
Default                     : Yes
Forced                      : No
 
Audio
ID                          : 1
Format                      : AAC
Format/Info                 : Advanced Audio Codec
Format profile              : HE-AAC / LC
Codec ID                    : A_AAC
Duration                    : 2 h 13 min
Bit rate                    : 192 kb/s
Channel(s)                  : 6 channels
Channel positions           : Front: L C R, Side: L R, LFE
Sampling rate               : 48.0 kHz / 24.0 kHz
Frame rate                  : 23.438 FPS (1024 SPF)
Compression mode            : Lossy
Delay relative to video     : 31 ms
Stream size                 : 183 MiB (7%)
Language                    : English
Default                     : Yes
Forced                      : No
 
Text #1
ID                          : 2
Format                      : UTF-8
Codec ID                    : S_TEXT/UTF8
Codec ID/Info               : UTF-8 Plain Text
Duration                    : 2 h 12 min
Bit rate                    : 65 b/s
Count of elements           : 1778
Stream size                 : 63.1 KiB (0%)
Language                    : English
Default                     : Yes
Forced                      : No
 
Text #2
ID                          : 3
Format                      : UTF-8
Codec ID                    : S_TEXT/UTF8
Codec ID/Info               : UTF-8 Plain Text
Duration                    : 5 s 131 ms
Bit rate                    : 79 b/s
Count of elements           : 2
Stream size                 : 51.0 Bytes (0%)
Title                       : Forced
Language                    : English
Default                     : No
Forced                      : Yes


 :ss:
***Click on the Screenshots to Enlarge Them***

***Click on the Screenshots to Enlarge Them*** :yahoo: :download: :yahoo:








Share this topic on FacebookShare this topic on GoogleShare this topic on MySpaceShare this topic on TwitterShare this topic on Yahoo



Thanks given by:


 

Related Topics

  Subject / Started by Replies Last post
0 Replies
316 Views
Last post September 26, 2017, 02:21:18 PM
by Rάήνίјάч1234
2 Replies
311 Views
Last post September 26, 2017, 08:30:19 PM
by ARAhmed
0 Replies
241 Views
Last post September 26, 2017, 11:28:06 PM
by ★ iamPK ★
0 Replies
322 Views
Last post October 03, 2017, 06:51:32 AM
by PSYCHO
0 Replies
310 Views
Last post October 04, 2017, 09:06:24 AM
by ♥[--K4Krish--]♥




Back to top