+ ShareSpark.net »  :::: Hollywood Zone » Hollywood Movies (Original Rips) » High Resolution Movies
|- Girls Trip (2017) 720p WEB-DL DD5.1 H264 - FGT [3.7GB]


100% DTH Offer

Girls Trip (2017) 720p WEB-DL DD5.1 H264 - FGT [3.7GB]

0 Members and 1 Guest are viewing this topic.

October 03, 2017, 09:44:09 PM
  • ♫♫♣ B૦ՐՈ T૦ H૯Նƿ ♣♫♫
  • Global Moderator
  • Legend Member
  • *****
  • Topic Author
  • Thank You: 1103
  • Reputation: 725
  • Activity:
    0%
  • Country: dk
  • Posts: 2712
  • Topics: 1192
  • Join Date: Jan 2013
  • ♠§§ Dσп'т Tαʟκ Jυƨт Acт §§ Dσп'т Sαч Jυƨт Sнσш §§♠
:title:
Girls Trip (2017) 720p WEB-DL DD5.1 H264 - FGT




:info:
Video
ID                                       : 1
Format                                   : AVC
Format/Info                              : Advanced Video Codec
Format profile                           : [email protected]
Format settings, CABAC                   : No
Format settings, ReFrames                : 2 frames
Codec ID                                 : V_MPEG4/ISO/AVC
Duration                                 : 2 h 2 min
Bit rate                                 : 3 925 kb/s
Width                                    : 1 280 pixels
Height                                   : 532 pixels
Display aspect ratio                     : 2.40:1
Frame rate mode                          : Constant
Frame rate                               : 23.976 FPS
Color space                              : YUV
Chroma subsampling                       : 4:2:0
Bit depth                                : 8 bits
Scan type                                : Progressive
Bits/(Pixel*Frame)                       : 0.240
Stream size                              : 3.35 GiB (89%)
Title                                    : Girls.Trip.2017.720p.WEB-DL.DD5.1.H264-FGT
Language                                 : English
Default                                  : Yes
Forced                                   : No
Color range                              : Limited
Color primaries                          : BT.709
Transfer characteristics                 : BT.709
Matrix coefficients                      : BT.709

Audio
ID                                       : 2
Format                                   : AC-3
Format/Info                              : Audio Coding 3
Format settings, Endianness              : Big
Codec ID                                 : A_AC3
Duration                                 : 2 h 2 min
Bit rate mode                            : Constant
Bit rate                                 : 384 kb/s
Channel(s)                               : 6 channels
Channel positions                        : Front: L C R, Side: L R, LFE
Sampling rate                            : 48.0 kHz
Frame rate                               : 31.250 FPS (1536 spf)
Bit depth                                : 16 bits
Compression mode                         : Lossy
Stream size                              : 335 MiB (9%)
Title                                    : Girls.Trip.2017.720p.WEB-DL.DD5.1.H264-FGT
Language                                 : English
Service kind                             : Complete Main
Default                                  : Yes
Forced                                   : No

Menu
00:00:00.000                             : en:1
00:04:15.714                             : en:2
00:12:48.143                             : en:3
00:18:09.130                             : en:4
00:22:41.110                             : en:5
00:30:03.218                             : en:6
00:36:28.102                             : en:7
00:43:19.471                             : en:8
00:50:30.527                             : en:9
00:56:27.842                             : en:10
01:03:40.524                             : en:11
01:13:00.375                             : en:12
01:18:55.646                             : en:13
01:24:34.234                             : en:14
01:30:53.947                             : en:15
01:34:54.479                             : en:16
01:41:27.371                             : en:17
01:46:07.567                             : en:18
01:53:53.157                             : en:19
01:58:38.442                             : en:20

:ss:





:download:






Share this topic on FacebookShare this topic on GoogleShare this topic on MySpaceShare this topic on TwitterShare this topic on Yahoo




If U like any post, then say thanks 2 d uploader by posting in his topic, adding thanks & reputes 2 him.:)

Thanks given by:


Tags:
 

Related Topics

  Subject / Started by Replies Last post
0 Replies
623 Views
Last post June 09, 2017, 08:16:31 AM
by exdking
0 Replies
661 Views
Last post August 06, 2017, 05:43:26 PM
by exdking
0 Replies
340 Views
Last post October 03, 2017, 05:45:43 PM
by ~~Ank!t~~
0 Replies
248 Views
Last post October 03, 2017, 08:33:14 PM
by PSYCHO
0 Replies
395 Views
Last post October 05, 2017, 10:32:54 PM
by PSYCHO




Back to top