+ ShareSpark.net »  :::: Bollywood Zone » Bollywood Movies (Original Rips)
|- YAARIYAN (2014) - 1CD - DVD-Rip - Hindi - 700MB - x264 - MP3 - Mafiaking ~HSR

Add 1000 Get 100 Back

YAARIYAN (2014) - 1CD - DVD-Rip - Hindi - 700MB - x264 - MP3 - Mafiaking ~HSR

0 Members and 1 Guest are viewing this topic.

February 16, 2014, 05:01:01 PM
  • Premium Uploader
  • Conqueror (Inactive)
  • Special Member
  • *****
  • Topic Author
  • Thank You: 176
  • Reputation: 88
  • Activity:
    0%
  • Country: in
  • Posts: 655
  • Topics: 184
  • Join Date: Sep 2013
  • ShareSpark Member
YAARIYAN (2014) - 1CD - DVD-Rip
Hindi - 700MB - x264 - MP3 - Mafiaking ~HSR




 


General
Unique ID : 206112404865975884051116693902567744695 (0x9B0FCE247A4792E2B5E81D4CA26D24B7)
Complete name : YAARIYAN (2014) - 1CD - DVD-Rip - Hindi - 700MB - x264 - MP3 - Mafiaking.mkv
Format : Matroska
Format version : Version 4 / Version 2
File size : 702 MiB
Duration : 2h 14mn
Overall bit rate : 732 Kbps
Movie name : YAARIYAN (2014) - 1CD - DVD-Rip - Hindi - 700MB - x264 - MP3 - Mafiaking
Encoded date : UTC 2014-02-16 09:40:59
Writing application : mkvmerge v6.5.0 ('Isn't she lovely') built on Oct 20 2013 12:50:05
Writing library : libebml v1.3.0 + libmatroska v1.4.1

Video
ID : 1
Format : AVC
Format/Info : Advanced Video Codec
Format profile : High@L4.1
Format settings, CABAC : Yes
Format settings, ReFrames : 4 frames
Codec ID : V_MPEG4/ISO/AVC
Duration : 2h 14mn
Bit rate : 650 Kbps
Width : 640 pixels
Height : 272 pixels
Display aspect ratio : 2.35:1
Frame rate mode : Constant
Frame rate : 29.970 fps
Color space : YUV
Chroma subsampling : 4:2:0
Bit depth : 8 bits
Scan type : Progressive
Bits/(Pixel*Frame) : 0.125
Stream size : 612 MiB (87%)
Title : Mafiaking
Writing library : x264 core 138 r2358 9e941d1

Language : English
Default : Yes
Forced : No

Audio
ID : 2
Format : MPEG Audio
Format version : Version 1
Format profile : Layer 3
Mode : Joint stereo
Mode extension : MS Stereo
Codec ID : A_MPEG/L3
Codec ID/Hint : MP3
Duration : 2h 14mn
Bit rate mode : Constant
Bit rate : 80.0 Kbps
Channel count : 2 channels
Sampling rate : 32.0 KHz
Compression mode : Lossy
Stream size : 76.8 MiB (11%)
Title : Mafiaking
Writing library : LAME3.99r
Encoding settings : -m j -V 4 -q 2 -lowpass 13.5 -b 80
Language : Hindi
Default : Yes
Forced : No













 :download:















Share this topic on FacebookShare this topic on GoogleShare this topic on MySpaceShare this topic on TwitterShare this topic on Yahoo

« Last Edit: February 16, 2014, 06:17:02 PM by happyyesh »



Tags: Yaariyan 2014 Bollywood 
 

Related Topics




Back to top