+ ShareSpark.net »  :::: Bollywood Zone » Bollywood Movies (Original Rips)
|- Humshakals (2014) - 720p - DVDRip - x264 - Esubs - x264 - AC3 5.1 -Team TT

Pantry 600 Back

Humshakals (2014) - 720p - DVDRip - x264 - Esubs - x264 - AC3 5.1 -Team TT

0 Members and 1 Guest are viewing this topic.

August 31, 2014, 02:59:14 PM
  • Begginer
  • **
  • Topic Author
  • Thank You: 17
  • Reputation: 4
  • Activity:
    0%
  • Country: in
  • Posts: 82
  • Topics: 77
  • Join Date: Oct 2013
  • ShareSpark Member
Humshakals (2014) - 720p - DVDRip - x264 - Esubs - x264 - AC3 5.1 -Team TT

 :info:
Format                                   : MPEG-4
Format profile                           : Base Media
Codec ID                                 : isom
File size                                : 2.50 GiB
Duration                                 : 2h 22mn
Overall bit rate mode                    : Variable
Overall bit rate                         : 2 510 Kbps
Encoded date                             : UTC 2014-08-18 09:29:00
Tagged date                              : UTC 2014-08-18 09:29:00

Video
ID                                       : 1
Format                                   : AVC
Format/Info                              : Advanced Video Codec
Format profile                           : High [email protected]
Format settings, CABAC                   : Yes
Format settings, ReFrames                : 4 frames
Codec ID                                 : avc1
Codec ID/Info                            : Advanced Video Coding
Duration                                 : 2h 22mn
Bit rate                                 : 2 059 Kbps
Maximum bit rate                         : 12.5 Mbps
Width                                    : 1 280 pixels
Height                                   : 544 pixels
Display aspect ratio                     : 2.35:1
Frame rate mode                          : Constant
Frame rate                               : 29.970 fps
Color space                              : YUV
Chroma subsampling                       : 4:2:0
Bit depth                                : 10 bits
Scan type                                : Progressive
Bits/(Pixel*Frame)                       : 0.099
Stream size                              : 2.05 GiB (82%)
Writing library                          : x264 core 142 r2431 ac76440
Encoding settings                        : cabac=1 / ref=3 / deblock=1:0:0 / analyse=0x3:0x133 / me=umh / subme=9 / psy=1 / psy_rd=1.00:0.15 / mixed_ref=1 / me_range=16 / chroma_me=1 / trellis=2 / 8x8dct=1 / cqm=0 / deadzone=21,11 / fast_pskip=1 / chroma_qp_offset=-3 / threads=48 / lookahead_threads=4 / sliced_threads=0 / nr=0 / decimate=1 / interlaced=0 / bluray_compat=0 / constrained_intra=0 / bframes=3 / b_pyramid=2 / b_adapt=2 / b_bias=0 / direct=3 / weightb=1 / open_gop=0 / weightp=2 / keyint=300 / keyint_min=29 / scenecut=40 / intra_refresh=0 / rc_lookahead=60 / rc=abr / mbtree=1 / bitrate=2059 / ratetol=1.0 / qcomp=0.60 / qpmin=0 / qpmax=81 / qpstep=4 / vbv_maxrate=24000 / vbv_bufsize=24000 / nal_hrd=none / filler=0 / ip_ratio=1.40 / aq=1:1.00
Encoded date                             : UTC 2014-08-18 08:57:30
Tagged date                              : UTC 2014-08-18 09:29:06
Color primaries                          : Generic film

Audio
ID                                       : 2
Format                                   : AC-3
Format/Info                              : Audio Coding 3
Mode extension                           : CM (complete main)
Format settings, Endianness              : Big
Codec ID                                 : ac-3
Duration                                 : 2h 22mn
Bit rate mode                            : Constant
Bit rate                                 : 448 Kbps
Channel(s)                               : 6 channels
Channel positions                        : Front: L C R, Side: L R, LFE
Sampling rate                            : 48.0 KHz
Bit depth                                : 16 bits
Compression mode                         : Lossy
Stream size                              : 457 MiB (18%)
Encoded date                             : UTC 2014-08-18 09:29:04
Tagged date                              : UTC 2014-08-18 09:29:06

Text
ID                                       : 3
Format                                   : mp4s
Codec ID                                 : E0
Duration                                 : 2h 20mn
Bit rate mode                            : Variable
Bit rate                                 : 4 744 bps
Maximum bit rate                         : 46.8 Kbps
Stream size                              : 4.77 MiB (0%)
Language                                 : English
Encoded date                             : UTC 2014-08-18 09:29:06
Tagged date                              : UTC 2014-08-18 09:29:06
 :ss:




SINGLE DIRECT FAST LINKS


Code:

Code:

Code:


700MB LINKS


Code:






Code:





Code:




Share this topic on FacebookShare this topic on GoogleShare this topic on MySpaceShare this topic on TwitterShare this topic on Yahoo

« Last Edit: August 31, 2014, 03:03:20 PM by Pravatku »



 

Related Topics




Back to top