+ ShareSpark.net
|- Recent Posts


Recent Posts

Pages: 1 2 3 4 ... 10
1
Atomic Blonde (2017) 720p WEB-DL MkvCage



 :info:

IMDb:-

Movie Title: Atomic Blonde (2017)
Director: David Leitch
Stars: Charlize Theron, James McAvoy, John Goodman
Release Date: 9 August 2017 (UK)
Genres: Action, Mystery, Thriller
Format: MatRoska (Mkv)
File Size: 900MB
Resolution: 1280x532
Runtime: 01:54:44
Language: English
Subtitles: English [Softcoded] - Muxed
Encoder: MkvCage (MC) Team
Source: 1080p.WEB-DL.DD5.1.H264-FGT
Video/Audio(MediaInfo) :-


 :ss:




 :download:















2
Atomic Blonde 2017 1080p WEB-DL DD5.1 H264 FGT



 :info:

Video
ID                                       : 1
Format                                   : AVC
Format/Info                              : Advanced Video Codec
Format profile                           : [email protected]
Format settings, CABAC                   : Yes
Format settings, ReFrames                : 5 frames
Codec ID                                 : V_MPEG4/ISO/AVC
Duration                                 : 1 h 54 min
Bit rate                                 : 4 435 kb/s
Width                                    : 1 916 pixels
Height                                   : 796 pixels
Display aspect ratio                     : 2.40:1
Frame rate mode                          : Constant
Frame rate                               : 23.976 (24000/1001) FPS
Color space                              : YUV
Chroma subsampling                       : 4:2:0
Bit depth                                : 8 bits
Scan type                                : Progressive
Bits/(Pixel*Frame)                       : 0.121
Stream size                              : 3.55 GiB (90%)
Title                                    : Atomic.Blonde.2017.1080p.WEB-DL.DD5.1.H264-FGT
Language                                 : English
Default                                  : Yes
Forced                                   : No
Color range                              : Limited
Color primaries                          : BT.709
Transfer characteristics                 : BT.709
Matrix coefficients                      : BT.709

Audio
ID                                       : 2
Format                                   : AC-3
Format/Info                              : Audio Coding 3
Format settings, Endianness              : Big
Codec ID                                 : A_AC3
Duration                                 : 1 h 54 min
Bit rate mode                            : Constant
Bit rate                                 : 384 kb/s
Channel(s)                               : 6 channels
Channel positions                        : Front: L C R, Side: L R, LFE
Sampling rate                            : 48.0 kHz
Frame rate                               : 31.250 FPS (1536 spf)
Bit depth                                : 16 bits
Compression mode                         : Lossy
Delay relative to video                  : -42 ms
Stream size                              : 315 MiB (8%)
Title                                    : Atomic.Blonde.2017.1080p.WEB-DL.DD5.1.H264-FGT
Language                                 : English
Service kind                             : Complete Main
Default                                  : Yes
Forced                                   : No

Text
ID                                       : 3
Format                                   : UTF-8
Codec ID                                 : S_TEXT/UTF8
Codec ID/Info                            : UTF-8 Plain Text
Language                                 : English
Default                                  : Yes
Forced                                   : No


 :ss:














 :download:









Esubs :





3
The Curse of Robert the Doll 2016 720p BluRay H264 AAC RARBG



 :info:

Video
ID                                       : 1
Format                                   : AVC
Format/Info                              : Advanced Video Codec
Format profile                           : [email protected]
Format settings                          : CABAC / 4 Ref Frames
Format settings, CABAC                   : Yes
Format settings, RefFrames               : 4 frames
Codec ID                                 : avc1
Codec ID/Info                            : Advanced Video Coding
Duration                                 : 1 h 19 min
Bit rate                                 : 1 500 kb/s
Width                                    : 1 280 pixels
Height                                   : 576 pixels
Display aspect ratio                     : 2.222
Frame rate mode                          : Constant
Frame rate                               : 25.000 FPS

Audio
ID                                       : 2
Format                                   : AAC
Format profile                           : LC
Bit rate                                 : 224 kb/s
Channel(s)                               : 2 channels
Sampling rate                            : 48.0 kHz
Language                                 : English


 :ss:








 :download:








4
Wheres the Money 2017 WEB-DL XviD AC3 FGT



 :info:

Video
ID                                       : 0
Format                                   : MPEG-4 Visual
Format profile                           : [email protected]
Format settings, BVOP                    : No
Format settings, QPel                    : No
Format settings, GMC                     : No warppoints
Format settings, Matrix                  : Default (H.263)
Codec ID                                 : XVID
Codec ID/Hint                            : XviD
Duration                                 : 1 h 25 min
Bit rate                                 : 1 431 kb/s
Width                                    : 720 pixels
Height                                   : 304 pixels
Display aspect ratio                     : 2.40:1
Frame rate                               : 23.976 (24000/1001) FPS
Color space                              : YUV
Chroma subsampling                       : 4:2:0
Bit depth                                : 8 bits
Scan type                                : Progressive
Compression mode                         : Lossy
Bits/(Pixel*Frame)                       : 0.273
Stream size                              : 876 MiB (78%)
Writing library                          : Lavc57.100.103

Audio
ID                                       : 1
Format                                   : AC-3
Format/Info                              : Audio Coding 3
Format settings, Endianness              : Big
Codec ID                                 : 2000
Duration                                 : 1 h 25 min
Bit rate mode                            : Constant
Bit rate                                 : 384 kb/s
Channel(s)                               : 6 channels
Channel positions                        : Front: L C R, Side: L R, LFE
Sampling rate                            : 48.0 kHz
Frame rate                               : 31.250 FPS (1536 spf)
Bit depth                                : 16 bits
Compression mode                         : Lossy
Stream size                              : 235 MiB (21%)
Alignment                                : Aligned on interleaves
Interleave, duration                     : 42  ms (1.00 video frame)
Interleave, preload duration             : 512  ms
Service kind                             : Complete Main


 :ss:










 :download:













Esubs :





5
Shortwave 2016 720p WEB-DL XviD AC3 FGT



 :info:

Video
ID                                       : 0
Format                                   : MPEG-4 Visual
Format profile                           : [email protected]
Format settings, BVOP                    : No
Format settings, QPel                    : No
Format settings, GMC                     : No warppoints
Format settings, Matrix                  : Default (H.263)
Codec ID                                 : XVID
Codec ID/Hint                            : XviD
Duration                                 : 1 h 28 min
Bit rate                                 : 1 387 kb/s
Width                                    : 720 pixels
Height                                   : 272 pixels
Display aspect ratio                     : 2.667
Frame rate                               : 23.976 (24000/1001) FPS
Color space                              : YUV
Chroma subsampling                       : 4:2:0
Bit depth                                : 8 bits
Scan type                                : Progressive
Compression mode                         : Lossy
Bits/(Pixel*Frame)                       : 0.295
Stream size                              : 881 MiB (78%)
Writing library                          : Lavc57.100.103

Audio
ID                                       : 1
Format                                   : AC-3
Format/Info                              : Audio Coding 3
Format settings, Endianness              : Big
Codec ID                                 : 2000
Duration                                 : 1 h 28 min
Bit rate mode                            : Constant
Bit rate                                 : 384 kb/s
Channel(s)                               : 6 channels
Channel positions                        : Front: L C R, Side: L R, LFE
Sampling rate                            : 48.0 kHz
Frame rate                               : 31.250 FPS (1536 spf)
Bit depth                                : 16 bits
Compression mode                         : Lossy
Stream size                              : 244 MiB (22%)
Alignment                                : Aligned on interleaves
Interleave, duration                     : 42  ms (1.00 video frame)
Interleave, preload duration             : 512  ms
Service kind                             : Complete Main


 :ss:








 :download:













Esubs :




7
Daring Raajakumara (2017) 720p UNCUT HDTVRip x264 Hindi Exclusive By -=!AKMM!=-






General
Format : Matroska
Format version : Version 4 / Version 2
File size : 1.33 GiB
Overall bit rate : 1 291 Kbps

Video
ID : 1
Format : AVC
Format/Info : Advanced Video Codec
Codec ID : V_MPEG4/ISO/AVC
Nominal bit rate : 1 000 Kbps
Width : 1 280 pixels
Height : 544 pixels
Display aspect ratio : 2.35:1
Frame rate mode : Variable
Original frame rate : 25.000 fps
Title : -=!ASHOK INFOTECH!=-

Audio
ID : 2
Format : AC-3
Format profile : Dolby Digital
Codec ID : A_AC3
Bit rate mode : Constant
Bit rate : 192 Kbps
Channel(s) : 2 channels
Channel positions : Front: L R
Sampling rate : 48.0 KHz
Title : -=!ASHOK INFOTECH!=-
Language : Hindi


8
Bigg Boss S11E21 HDTV 200MB 480p 21st October 2017 Exclusive By_ASHOK INFOTECH



[TITLE]………………….: Bigg Boss 11
[GENRE]……………………:  Comedy, Drama., LIve Show
[RELEASE DATE]……………..: 21 October 2017
[QUALITY]……………..: 480p
[BITRATE]………………: 128Kbps
[VIDEO]……………………: MKV – x264
[AUDIO]……………………: AAC – 2CH
[FILE SIZE]………………..: 200MB
[RESOLUTION]……………….: 702x320
[FRAME RATE]……………….: 25.000 fps
[LANGUAGE]…………………:  Hindi
[SUBTITLES]………………..: -=none=-
[SOURCE]………………..: WEB-DL (thanks!)
[ENCODER]:…………………. ASHOK INFOTECH



480p LINK :-(200MB)


9
The Glass Castle 2017 WEB-DL XviD AC3 FGT



 :info:

Video
ID                                       : 0
Format                                   : MPEG-4 Visual
Format profile                           : [email protected]
Format settings, BVOP                    : No
Format settings, QPel                    : No
Format settings, GMC                     : No warppoints
Format settings, Matrix                  : Default (H.263)
Codec ID                                 : XVID
Codec ID/Hint                            : XviD
Duration                                 : 2 h 7 min
Bit rate                                 : 1 390 kb/s
Width                                    : 720 pixels
Height                                   : 304 pixels
Display aspect ratio                     : 2.40:1
Frame rate                               : 23.976 (24000/1001) FPS
Color space                              : YUV
Chroma subsampling                       : 4:2:0
Bit depth                                : 8 bits
Scan type                                : Progressive
Compression mode                         : Lossy
Bits/(Pixel*Frame)                       : 0.265
Stream size                              : 1.24 GiB (78%)
Writing library                          : Lavc57.100.103

Audio
ID                                       : 1
Format                                   : AC-3
Format/Info                              : Audio Coding 3
Format settings, Endianness              : Big
Codec ID                                 : 2000
Duration                                 : 2 h 7 min
Bit rate mode                            : Constant
Bit rate                                 : 384 kb/s
Channel(s)                               : 6 channels
Channel positions                        : Front: L C R, Side: L R, LFE
Sampling rate                            : 48.0 kHz
Frame rate                               : 31.250 FPS (1536 spf)
Bit depth                                : 16 bits
Compression mode                         : Lossy
Stream size                              : 349 MiB (22%)
Alignment                                : Aligned on interleaves
Interleave, duration                     : 42  ms (1.00 video frame)
Interleave, preload duration             : 512  ms
Service kind                             : Complete Main


 :ss:










 :download:













Esubs :





10
WWE Monday Night Raw 25th September (2017) English HDTV 480p.720p Exclusive By_ASHOK INFOTECH






480p LINK :-(500MB)


720p DIRECT LINK :-(1.4GB)

Pages: 1 2 3 4 ... 10



Back to top