+ ShareSpark.net
|- Recent Posts


Recent Posts

Pages: 1 2 3 4 ... 10
1
18+Sleeping Beauty (2011) English 720p BluRay x264 AAC 650MB



 :info:

Format : Matroska
Format version : Version 4 / Version 2
File size : 649 MiB
Duration : 1 h 41 min
Overall bit rate mode : Variable
Overall bit rate : 891 kb/s


 :ss:



 :download:

2
18+Sleeping Beauties ( 2017 ) English 720p HDRip x264 AAC 707MB



 :info:

Format : Matroska
Format version : Version 4 / Version 2
File size : 707 MiB
Duration : 1 h 21 min
Overall bit rate : 1 214 kb/s


 :ss:



 :download:

3
Big Zee Entertainment Awards 2017 - 19th August 2017 - 720p HDTV Rip-1.70 GB







 :info:

General
Complete name                            : Big Zee Entertainment Awards 2017 - 19th August 2017 - 720p HDTV Rip
Format                                   : MPEG-4
Format profile                           : Base Media
Codec ID                                 : isom (isom/iso2/avc1/mp41)
File size                                : 1.71 GiB
Duration                                 : 3 h 2 min
Overall bit rate mode                    : Constant
Overall bit rate                         : 1 342 kb/s
Writing application                      : Lavf57.25.101

Video
ID                                       : 1
Format                                   : AVC
Format/Info                              : Advanced Video Codec
Format profile                           : [email protected]
Format settings, CABAC                   : Yes
Format settings, RefFrames               : 4 frames
Format settings, GOP                     : M=2, N=50
Codec ID                                 : avc1
Codec ID/Info                            : Advanced Video Coding
Duration                                 : 3 h 2 min
Bit rate mode                            : Constant
Bit rate                                 : 1 196 kb/s
Width                                    : 1 280 pixels
Height                                   : 720 pixels
Display aspect ratio                     : 16:9
Frame rate mode                          : Variable
Frame rate                               : 25.000 FPS
Minimum frame rate                       : 0.605 FPS
Maximum frame rate                       : 25.000 FPS
Color space                              : YUV
Chroma subsampling                       : 4:2:0
Bit depth                                : 8 bits
Scan type                                : Progressive
Bits/(Pixel*Frame)                       : 0.052
Stream size                              : 1.53 GiB (89%)
Color range                              : Limited
Color primaries                          : BT.709
Transfer characteristics                 : BT.709
Matrix coefficients                      : BT.709

Audio
ID                                       : 2
Format                                   : AAC
Format/Info                              : Advanced Audio Codec
Format profile                           : LC
Codec ID                                 : 40
Duration                                 : 3 h 2 min
Bit rate mode                            : Constant
Bit rate                                 : 140 kb/s
Channel(s)                               : 2 channels
Channel positions                        : Front: L R
Sampling rate                            : 48.0 kHz
Frame rate                               : 46.875 FPS (1024 SPF)
Compression mode                         : Lossy
Stream size                              : 183 MiB (10%)
Default                                  : Yes
Alternate group                          : 1


 :ss:
























Run to Speed

Download


Dillu9







4
huge size plz upload on mega.nz or other resumable fast server or make torrent
8
 :like:
10
720p please ...approximate 1-1.5 gb print 
Pages: 1 2 3 4 ... 10



Back to top