+ ShareSpark.net »  :::: Dubbed Zone (Dubbed English in Hindi) » TV Shows (Dubbed in Hindi)
|- Planet Earth S01E01 ‘From Pole to Pole’ 1080p BluRay [Dual Audio] [Urdu 2.0 - English 2.0]


Planet Earth S01E01 ‘From Pole to Pole’ 1080p BluRay [Dual Audio] [Urdu 2.0 - English 2.0]

0 Members and 1 Guest are viewing this topic.

May 10, 2017, 03:31:25 PM
  • Semi Newbie
  • **
  • Topic Author
  • Thank You: 28
  • Reputation: 8
  • Activity:
    0%
  • Posts: 29
  • Topics: 24
  • Join Date: May 2016
  • ShareSpark Member
Planet Earth S01E01 ‘From Pole to Pole’ 1080p BluRay [Dual Audio] [Urdu 2.0 - English 2.0] x264


General
Format                                   : Matroska
Format version                           : Version 4 / Version 2
File size                                : 1 016 MiB
Duration                                 : 53 min 20 s
Overall bit rate                         : 2 662 kb/s
Movie name                               : This movie is encoded by Ahmed-Maher
Encoded date                             : UTC 2017-04-28 08:57:30
Writing application                      : mkvmerge v9.7.1 ('Pandemonium') 64bit
Writing library                          : libebml v1.3.4 + libmatroska v1.4.5

Video
ID                                       : 1
Format                                   : AVC
Format/Info                              : Advanced Video Codec
Format profile                           : [email protected]
Format settings, CABAC                   : Yes
Format settings, ReFrames                : 4 frames
Codec ID                                 : V_MPEG4/ISO/AVC
Duration                                 : 53 min 20 s
Bit rate                                 : 2 105 kb/s
Width                                    : 1 920 pixels
Height                                   : 1 080 pixels
Display aspect ratio                     : 16:9
Frame rate mode                          : Constant
Frame rate                               : 23.976 (24000/1001) FPS
Color space                              : YUV
Chroma subsampling                       : 4:2:0
Bit depth                                : 8 bits
Scan type                                : Progressive
Bits/(Pixel*Frame)                       : 0.042
Stream size                              : 803 MiB (79%)
Writing library                          : x264 core 133 r2334 a3ac64b
Default                                  : Yes
Forced                                   : No

Audio #1
ID                                       : 2
Format                                   : AAC
Format/Info                              : Advanced Audio Codec
Format profile                           : LC
Codec ID                                 : A_AAC
Duration                                 : 51 min 10 s
Bit rate                                 : 384 kb/s
Channel(s)                               : 6 channels
Channel positions                        : Front: L C R, Side: L R, LFE
Sampling rate                            : 48.0 kHz
Frame rate                               : 46.875 FPS (1024 spf)
Compression mode                         : Lossy
Stream size                              : 139 MiB (14%)
Language                                 : English
Default                                  : No
Forced                                   : No

Audio #2
ID                                       : 3
Format                                   : MPEG Audio
Format version                           : Version 1
Format profile                           : Layer 3
Mode                                     : Joint stereo
Codec ID                                 : A_MPEG/L3
Codec ID/Hint                            : MP3
Duration                                 : 53 min 18 s
Bit rate mode                            : Constant
Bit rate                                 : 192 kb/s
Channel(s)                               : 2 channels
Sampling rate                            : 44.1 kHz
Frame rate                               : 38.281 FPS (1152 spf)
Compression mode                         : Lossy
Stream size                              : 73.2 MiB (7%)
Title                                    : Ahmed-Maher(Urdu)
Writing library                          : LAME3.98.2
Language                                 : Urdu
Default                                  : Yes
Forced                                   : Yes
Perfect Sync By Me-(AHMED-MAHER)-


Please Seed Seed Seed After Download


:ss:
:dance:
:pakistan:
:download:

Share this topic on FacebookShare this topic on GoogleShare this topic on MySpaceShare this topic on TwitterShare this topic on Yahoo




August 09, 2017, 10:26:01 PM
Reply #1
  • Hero Member
  • ***
  • Thank You: 21
  • Reputation: 1
  • Activity:
    0.6%
  • Posts: 314
  • Topics: 56
  • Join Date: Jan 2013
  • ShareSpark Member

Tags: planet earth season 1 
 

Related Topics





Back to top