+ ShareSpark.net »  :::: Dubbed Zone (Dubbed English in Hindi) » English Movies Dubbed in Hindi
|- Oculus (2013) 720p BluRay x264 AC3 Dual Audio [English DD 5.1CH - Hindi DD 5.1CH] 780MB XdesiArsenal


Oculus (2013) 720p BluRay x264 AC3 Dual Audio [English DD 5.1CH - Hindi DD 5.1CH] 780MB XdesiArsenal

0 Members and 1 Guest are viewing this topic.

August 12, 2017, 06:50:39 PM
  • Team SSX
  • Hero Member
  • ***
  • Topic Author
  • Thank You: 388
  • Reputation: 93
  • Activity:
    52.6%
  • Country: il
  • Posts: 334
  • Topics: 220
  • Join Date: Dec 2016
  • Never be bullied into silence.....
Oculus (2013) 720p BluRay x264 AC3 Dual Audio
[English DD 5.1CH - Hindi DD 5.1CH] 780MB XdesiArsenal [ExD-XMR]




Video
ID : 1
Format : AVC
Format/Info : Advanced Video Codec
Format profile : [email protected]
Format settings, CABAC : Yes
Format settings, ReFrames : 4 frames
Muxing mode : Header stripping
Codec ID : V_MPEG4/ISO/AVC
Duration : 1 h 44 min
Width : 1 280 pixels
Height : 536 pixels
Display aspect ratio : 2.40:1
Frame rate mode : Constant
Frame rate : 24.000 FPS
Color space : YUV
Chroma subsampling : 4:2:0
Bit depth : 8 bits
Scan type : Progressive
Title : Oculus (2013) by XdesiArsenal [ExD-XMR]
Writing library : x264 core 112
Language : English
Default : Yes
Forced : No
Color range : Limited
Color primaries : BT.709
Transfer characteristics : BT.709
Matrix coefficients : BT.709

Audio #1
ID : 2
Format : AC-3
Format/Info : Audio Coding 3
Format settings, Endianness : Big
Muxing mode : Header stripping
Codec ID : A_AC3
Duration : 1 h 44 min
Bit rate mode : Constant
Bit rate : 224 kb/s
Channel(s) : 6 channels
Channel positions : Front: L C R, Side: L R, LFE
Sampling rate : 48.0 kHz
Frame rate : 31.250 FPS (1536 spf)
Bit depth : 16 bits
Compression mode : Lossy
Delay relative to video : 100 ms
Stream size : 167 MiB
Title : XdesiArsenal
Language : English
Service kind : Complete Main
Default : No
Forced : No

Audio #2
ID : 3
Format : AC-3
Format/Info : Audio Coding 3
Format settings, Endianness : Big
Muxing mode : Header stripping
Codec ID : A_AC3
Duration : 1 h 44 min
Bit rate mode : Constant
Bit rate : 224 kb/s
Channel(s) : 6 channels
Channel positions : Front: L C R, Side: L R, LFE
Sampling rate : 48.0 kHz
Frame rate : 31.250 FPS (1536 spf)
Bit depth : 16 bits
Compression mode : Lossy
Delay relative to video : 100 ms
Stream size : 167 MiB
Title : XdesiArsenal
Language : Hindi
Service kind : Complete Main
Default : Yes
Forced : No


























Share this topic on FacebookShare this topic on GoogleShare this topic on MySpaceShare this topic on TwitterShare this topic on Yahoo

« Last Edit: August 12, 2017, 07:08:07 PM by ~~Ank!t~~ »


Thanks given by:


August 13, 2017, 12:39:34 AM
Reply #1
  • Royal Member
  • ****
  • Thank You: 150
  • Reputation: 65
  • Activity:
    29.4%
  • Country: sa
  • Posts: 933
  • Topics: 92
  • Join Date: Jan 2017
  • ShareSpark Member

Tags:
 

Related Topics





Back to top