+ ShareSpark.net »  :::: Bollywood Zone » Regional Movies » Regional Movies in Hindi
|- Kanchana Returns (Shivalinga) 2017 1080p WEB-HD AVC AAC - Ranvijay


Kanchana Returns (Shivalinga) 2017 1080p WEB-HD AVC AAC - Ranvijay

0 Members and 1 Guest are viewing this topic.

August 13, 2017, 01:14:45 AM
  • Addic7ed
  • Legend Member
  • ****
  • Topic Author
  • Thank You: 2176
  • Reputation: 405
  • Activity:
    100%
  • Country: in
  • Posts: 2351
  • Topics: 1959
  • Join Date: Jan 2014
  • ShareSpark Member
Kanchana Returns (Shivalinga) 2017 1080p WEB-HD AVC AAC - Ranvijay



 :info:

Quote
Format                                   : Matroska
Format version                           : Version 4 / Version 2
File size                                : 2.62 GiB
Duration                                 : 2 h 9 min
Overall bit rate                         : 2 892 kb/s

Video
ID                                       : 1
Format                                   : AVC
Format/Info                              : Advanced Video Codec
Format profile                           : [email protected]
Format settings, CABAC                   : Yes
Format settings, RefFrames               : 2 frames
Codec ID                                 : V_MPEG4/ISO/AVC
Duration                                 : 2 h 9 min
Bit rate                                 : 2 764 kb/s
Width                                    : 1 920 pixels
Height                                   : 1 080 pixels
Display aspect ratio                     : 16:9
Frame rate mode                          : Constant
Frame rate                               : 25.000 FPS
Color space                              : YUV
Chroma subsampling                       : 4:2:0
Bit depth                                : 8 bits
Scan type                                : Progressive
Bits/(Pixel*Frame)                       : 0.053
Stream size                              : 2.50 GiB (96%)
Default                                  : Yes
Forced                                   : No
Color range                              : Limited
Color primaries                          : BT.709
Transfer characteristics                 : BT.709
Matrix coefficients                      : BT.709

Audio
ID                                       : 2
Format                                   : AAC
Format/Info                              : Advanced Audio Codec
Format profile                           : LC
Codec ID                                 : A_AAC
Duration                                 : 2 h 9 min
Bit rate                                 : 126 kb/s
Channel(s)                               : 2 channels
Channel positions                        : Front: L R
Sampling rate                            : 44.1 kHz
Frame rate                               : 43.066 FPS (1024 SPF)
Compression mode                         : Lossy
Stream size                              : 116 MiB (4%)
Default                                  : Yes
Forced                                   : No

Text
ID                                       : 3
Format                                   : UTF-8
Codec ID                                 : S_TEXT/UTF8
Codec ID/Info                            : UTF-8 Plain Text
Duration                                 : 1 min 28 s
Bit rate                                 : 103 b/s
Count of elements                        : 7
Stream size                              : 1.12 KiB (0%)
Default                                  : Yes
Forced                                   : Yes

:ss:


















 :download:

Quote


Captcha is Disabled in Keeplinks




Don't walk as you are king, walk as you don't care who the king is....!!
Never argue with an idiot. They drag you down to their level and then beat you with experience?

Share this topic on FacebookShare this topic on GoogleShare this topic on MySpaceShare this topic on TwitterShare this topic on Yahoo

« Last Edit: August 13, 2017, 02:57:43 AM by Rάήνίјάч1234 »



Don't walk as you are king, walk as you don't care who the king is....!!

August 13, 2017, 06:55:49 PM
Reply #1
  • Special Member
  • ****
  • Thank You: 140
  • Reputation: 63
  • Activity:
    69.8%
  • Country: sa
  • Posts: 784
  • Topics: 82
  • Join Date: Jan 2017
  • ShareSpark Member

Tags:
 

Related Topics

  Subject / Started by Replies Last post
0 Replies
490 Views
Last post March 30, 2017, 02:32:14 PM
by Rάήνίјάч1234
0 Replies
424 Views
Last post May 11, 2017, 10:55:23 PM
by exdking
0 Replies
488 Views
Last post May 12, 2017, 01:59:44 AM
by exdking
0 Replies
234 Views
Last post August 12, 2017, 10:29:33 PM
by __B!RoH!_MoN__
0 Replies
279 Views
Last post August 13, 2017, 02:22:32 AM
by Rάήνίјάч1234




Back to top