+ ShareSpark.net »  :::: Bollywood Zone » Regional Movies » Regional Movies in Hindi
|- Kanchana Returns (Shivalinga) 2017 480p WEB-HD -AVC-AAC- Ranvijay


Kanchana Returns (Shivalinga) 2017 480p WEB-HD -AVC-AAC- Ranvijay

0 Members and 1 Guest are viewing this topic.

August 13, 2017, 02:22:32 AM
  • Elite Moderator
  • Legend Member
  • ****
  • Topic Author
  • Thank You: 4011
  • Reputation: 765
  • Activity:
    100%
  • Country: in
  • Posts: 3384
  • Topics: 2840
  • Join Date: Jan 2014
  • ıllıllı ѕмoĸιng ιѕ good ғor нealтн ıllıllı :)
Kanchana Returns (Shivalinga) 2017 480p WEB-HD -AVC-AAC- Ranvijay



:info:

Format                                   : MPEG-4
Format profile                           : Base Media
Codec ID                                 : isom (isom/iso2/avc1/mp41)
File size                                : 768 MiB
Duration                                 : 2 h 9 min
Overall bit rate                         : 829 kb/s
Writing application                      : Lavf56.40.101

Video
ID                                       : 1
Format                                   : AVC
Format/Info                              : Advanced Video Codec
Format profile                           : [email protected]
Format settings, CABAC                   : Yes
Format settings, RefFrames               : 3 frames
Codec ID                                 : avc1
Codec ID/Info                            : Advanced Video Coding
Duration                                 : 2 h 9 min
Duration_FirstFrame                      : -40 ms
Bit rate                                 : 697 kb/s
Width                                    : 854 pixels
Height                                   : 480 pixels
Display aspect ratio                     : 16:9
Frame rate mode                          : Variable
Frame rate                               : 25.000 FPS
Minimum frame rate                       : 25.000 FPS
Maximum frame rate                       : 25.014 FPS
Color space                              : YUV
Chroma subsampling                       : 4:2:0
Bit depth                                : 8 bits
Scan type                                : Progressive
Bits/(Pixel*Frame)                       : 0.068
Stream size                              : 646 MiB (84%)
Color range                              : Limited
Color primaries                          : BT.709
Transfer characteristics                 : BT.709
Matrix coefficients                      : BT.709

Audio
ID                                       : 2
Format                                   : AAC
Format/Info                              : Advanced Audio Codec
Format profile                           : LC
Codec ID                                 : 40
Duration                                 : 2 h 9 min
Bit rate mode                            : Constant
Bit rate                                 : 126 kb/s
Channel(s)                               : 2 channels
Channel positions                        : Front: L R
Sampling rate                            : 44.1 kHz
Frame rate                               : 43.066 FPS (1024 SPF)
Compression mode                         : Lossy
Stream size                              : 116 MiB (15%)
Default                                  : Yes
Alternate group                          : 1


:ss:













 :download:

Quote


Captcha is Disabled in Keeplinks




Don't walk as you are king, walk as you don't care who the king is....!!
Never argue with an idiot. They drag you down to their level and then beat you with experience?

Share this topic on FacebookShare this topic on GoogleShare this topic on MySpaceShare this topic on TwitterShare this topic on Yahoo

« Last Edit: August 13, 2017, 03:47:35 AM by Rάήνίјάч1234 »



Don't walk as you are king, walk as you don't care who the king is....!!

Tags:
 

Related Topics

  Subject / Started by Replies Last post
0 Replies
387 Views
Last post March 21, 2017, 08:45:40 PM
by Rάήνίјάч1234
0 Replies
445 Views
Last post April 17, 2017, 01:28:36 PM
by Rάήνίјάч1234
0 Replies
555 Views
Last post May 11, 2017, 10:55:23 PM
by exdking
0 Replies
412 Views
Last post August 12, 2017, 10:29:33 PM
by __B!RoH!_MoN__
1 Replies
435 Views
Last post August 13, 2017, 06:55:49 PM
by Vagabond




Back to top