+ ShareSpark.net
|- Recent Posts


Recent Posts

Pages: 1 2 3 4 ... 10
1
It 2017 and Kingsmen 2017 org hindi 5.1 upload release amzone 26dec pls upload
2
JaCkRoSe bro,
Please giv any PRO App to open ".doc" files except "Docs To Go"
3
Shree Shree 1008 Reps Baba Dr Star ki Jai :crazy:
4
General Discussion / Re: DVD / Blu-ray Release Dates
« Last post by honey01 on 1 hour ago »
Out now~

Satyam Shivam Sundaram (1978) Untouched BD50 - TrueHD 5.1 ESub - DTOne Exclusive
5
And possible add one more to the rule list.

If any rip contains HardTags its should be mentioned in the post itself.

So the people interested can download or will skip it.

6


Code: [Select]
General

Format                         : Matroska
Format version                 : Version 4 / Version 2
File size                      : 2.30 GiB
Duration                       : 1 h 44 min
Overall bit rate               : 3 156 kb/s

Video

Width                          : 1 280 pixels
Height                         : 720 pixels
Display aspect ratio           : 16:9
Frame rate mode                : Constant
Frame rate                     : 24.000 FPS

Audio

Format                         : AAC
Bit rate                       : 192 kb/s
Channel(s)                     : 2 channels
Channel positions              : Front: L R
Sampling rate                  : 48.0 kHz
Language                       : Hindi



Source : ErosNow

Download Links :









7



-:: Information ::-

Source : DVD5 @ Rohit

Format                      : Matroska
Format version              : Version 4 / Version 2
File size                   : 899 MiB
Duration                    : 1 h 45 min
Overall bit rate            : 1 193 kb/s

Video
ID                          : 1
Format                      : AVC
Format/Info                 : Advanced Video Codec
Format profile              :[email protected]
Format settings, CABAC      : Yes
Format settings, RefFrames  : 6 frames
Codec ID                    : V_MPEG4/ISO/AVC
Duration                    : 1 h 45 min
Bit rate                    : 1 096 kb/s
Width                       : 1 280 pixels
Height                      : 544 pixels
Display aspect ratio        : 2.35:1
Frame rate mode             : Constant
Frame rate                  : 23.976 (24000/1001) FPS

Audio
ID                          : 2
Format                      : AAC
Format/Info                 : Advanced Audio Codec
Format profile              : LC
Codec ID                    : A_AAC
Duration                    : 1 h 45 min
Bit rate                    : 96.0 kb/s
Channel(s)                  : 2 channels
Channel positions           : Front: L R
Sampling rate               : 44.1 kHz

-:: ScreenShots ::-







-:: DOWNLOAD ::-








8





-:: Information ::-

General
Complete name : A Gentleman (2017) - 720p - BluRay - Hindi - x264 - AC3 - DD5.1 - Mafiaking - M2Tv.mkv
Format : Matroska
Format version : Version 4 / Version 2
File size : 1.09 GiB
Duration : 2 h 12 min
Overall bit rate : 1 176 kb/s
Movie name : A Gentleman (2017) - 720p - BluRay - Hindi - x264 - AC3 - DD5.1 - Mafiaking - M2Tv

Video
ID : 1
Format : AVC
Codec ID : V_MPEG4/ISO/AVC
Duration : 2 h 12 min
Bit rate : 950 kb/s
Width : 1 280 pixels
Height : 536 pixels
Display aspect ratio : 2.40:1
Frame rate mode : Constant
Frame rate : 24.000 FPS
Stream size : 900 MiB (81%)
Title : Mafiaking
Language : Hindi
Default : Yes
Forced : No

Audio
ID : 2
Format : AC-3
Duration : 2 h 12 min
Bit rate mode : Constant
Bit rate : 224 kb/s
Channel(s) : 6 channels
Sampling rate : 48.0 kHz
Stream size : 212 MiB (19%)
Title : Mafiaking
Language : Hindi
Service kind : Complete Main
Default : Yes

-:: ScreenShots ::-







-:: DOWNLOAD ::-








9



-:: Information ::-

General
Complete name : Lucknow Central (2017) - 720p - BluRay - Hindi - x264 - AC3 - DD5.1 - Mafiaking - M2Tv.mkv
Format : Matroska
Format version : Version 4 / Version 2
File size : 1.19 GiB
Duration : 2 h 24 min
Overall bit rate : 1 175 kb/s
Movie name : Lucknow Central (2017) - 720p - BluRay - Hindi - x264 - AC3 - DD5.1 - Mafiaking - M2Tv

Video
ID : 1
Format : AVC
Duration : 2 h 24 min
Bit rate : 950 kb/s
Width : 1 280 pixels
Height : 544 pixels
Display aspect ratio : 2.35:1
Frame rate mode : Constant
Frame rate : 24.000 FPS
Stream size : 983 MiB (81%)
Title : Mafiaking
Language : Hindi
Default : Yes
Forced : No

Audio
ID : 2
Format : AC-3
Duration : 2 h 24 min
Bit rate mode : Constant
Bit rate : 224 kb/s
Channel(s) : 6 channels
Sampling rate : 48.0 kHz
Stream size : 232 MiB (19%)
Title : Mafiaking
Language : Hindi
Default : Yes

-:: ScreenShots ::-







-:: DOWNLOAD ::-








10


Renee Young, David Otunga, and Peter Rosenberg preview WWE Clash of Champions Live from Boston, MA!

Title: WWE.Clash.Of.Champions.2017.Kickoff.720p.WEB.h264-HEEL
Released: 2017.12.17
Source: WWE Network
Resolution: 1280 x 720 @ 29.970 FPS
Video: H.264 @ 4372 kbps
Audio: AAC @ 125 kbps
Size: 1.88 GB
Runtime: 59mn 38sec

You know who it is.

Untouched/remuxed video stream from the WWE Network.
































Pages: 1 2 3 4 ... 10



Back to top