+ ShareSpark.net
|- Recent Posts


Recent Posts

Pages: 1 2 3 4 ... 10
1
The Cropsey Incident 2017 DVDRip XViD AC3 - juggs



 :info:



Source : DVDR ...Thanks
Video.
Duration :1h25mn
Bit rate : 1592Kbps
Width : 720 pixels
Height : 304pixels
Display aspect ratio :2.35:1
Frame rate : 23.976 fps

Audio.
Format : AC3
Bit rate : 160Kbps
Channel(s) 2 channels
Sampling rate : 48.0 KHz


 :ss:












 :download:















2
Transformers The Last Knight (2017) IMAX 1080p BDRip Dual Audio Org BD {Hindi+Eng 6Ch}~{[email protected])










:ss:

















 :download:

Quote



File Leeched & Uploaded From




Don't walk as you are king, walk as you don't care who the king is....!!
Never argue with an idiot. They drag you down to their level and then beat you with experience?
3


Quote
Perfect Synced Hindi Audio
Viceroy's House AKA Partition 1947 (2017) - 1080p - Sadhu's HD.mka 142.7 MB
Audio SOurce : HoneyHD
===============================================

===============================================
4
Transformers The Last Knight (2017) IMAX 1080p[Dual Audio][ENG(5.1)-HINDI(5.1)]~{PHDR}~



Quote
Sullivan Stapleton ... Themistocles

Eva Green ... Artemisia

Lena Headey ... Queen Gorgo

Hans Matheson ... Aeskylos

Callan Mulvey ... Scyllias

David Wenham ... Oilios

Rodrigo Santoro ... Xerxes

Jack O'Connell ... Calisto

Andrew Tiernan ... Ephialtes

Igal Naor ... King Darius

Andrew Pleavin ... Daxos

Peter Mensah ... Persian Emissary

Ben Turner ... General Artaphernes

Ashraf Barhom ... General Bandari

Christopher Sciueref ... General Kashani



Genre



Action | Drama | Fantasy | War


General



Complete name : 300 Rise of An Empire (2014) 1080p[Dual Audio][ENG(5.1)-HINDI(5.1)]~{PHDR}~

Format : Matroska

Format version : Version 4 / Version 2

File size : 3.42 GiB

Duration : 1h 42mn

Overall bit rate : 4 777 Kbps

Movie name : 300 : Rise of An Empire



Video

ID : 1

Format : AVC

Format/Info : Advanced Video Codec

Format profile : [email protected]
/* */


Format settings, CABAC : Yes

Format settings, ReFrames : 4 frames

Codec ID : V_MPEG4/ISO/AVC

Duration : 1h 42mn

Bit rate : 3 679 Kbps

Width : 1 920 pixels

Height : 800 pixels

Display aspect ratio : 2.40:1

Frame rate mode : Constant

Frame rate : 23.976 fps

Color space : YUV

Chroma subsampling : 4:2:0

Bit depth : 8 bits

Scan type : Progressive

Bits/(Pixel*Frame) : 0.100

Stream size : 2.58 GiB (75%)

Default : Yes

Forced : No



Audio #1

ID : 2

Format : AC-3

Format/Info : Audio Coding 3

Mode extension : CM (complete main)

Format settings, Endianness : Big

Codec ID : A_AC3

Duration : 1h 42mn

Bit rate mode : Constant

Bit rate : 448 Kbps

Channel(s) : 6 channels

Channel positions : Front: L C R, Side: L R, LFE

Sampling rate : 48.0 KHz

Bit depth : 16 bits

Compression mode : Lossy

Stream size : 329 MiB (9%)

Title : Bluray

Language : Hindi

Default : Yes

Forced : No



Audio #2

ID : 3

Format : AC-3

Format/Info : Audio Coding 3

Mode extension : CM (complete main)

Format settings, Endianness : Big

Codec ID : A_AC3

Duration : 1h 42mn

Bit rate mode : Constant

Bit rate : 640 Kbps

Channel(s) : 6 channels

Channel positions : Front: L C R, Side: L R, LFE

Sampling rate : 48.0 KHz

Bit depth : 16 bits

Compression mode : Lossy

Stream size : 470 MiB (13%)

Title : Bluray

Language : English

Default : No

Forced : No



Text

ID : 4

Format : PGS

Muxing mode : zlib

Codec ID : S_HDMV/PGS

Codec ID/Info : The same subtitle format used on BDs/HD-DVDs

Title : Bluray

Language : English

Default : Yes

Forced : No



Menu : YES

:ss:








 :download:

Quote




File Leeched & Uploaded From




Don't walk as you are king, walk as you don't care who the king is....!!
Never argue with an idiot. They drag you down to their level and then beat you with experience?
Pages: 1 2 3 4 ... 10



Back to top