+ ShareSpark.net »  :::: Dubbed Zone (Dubbed English in Hindi) » English Movies Dubbed in Hindi » High Resolution Movies
|- Oblivion.(2013).1080p.BDRip.Dual.Audio.Org.Hindi.5.1+Eng.5.1.-~{DOOMSDAY}~-


Oblivion.(2013).1080p.BDRip.Dual.Audio.Org.Hindi.5.1+Eng.5.1.-~{DOOMSDAY}~-

0 Members and 1 Guest are viewing this topic.

October 18, 2016, 09:01:24 PM
  • *****************
  • Head Admin
  • Legend Member
  • *****
  • Topic Author
  • Thank You: 6070
  • Reputation: 2665
  • Activity:
    100%
  • Country: in
  • Posts: 18060
  • Topics: 10730
  • Join Date: Mar 2012
  • The Time Is Now......




Complete name               : Oblivion.(2013).1080p.BDRip.Dual.Audio.Org.Hindi.5.1+Eng.5.1.-~{[email protected]}~-.mkv

Format                      : Matroska

Format version              : Version 4 / Version 2

File size                   : 3.73 GiB

Duration                    : 1 h 59 min

Overall bit rate mode       : Variable

Overall bit rate            : 4 464 kb/s

Movie name                  : Oblivion.(2013).1080p.BDRip.Dual.Audio.Org.Hindi.5.1+Eng.5.1.-~{[email protected]}~-



Video

ID                          : 1

Format                      : AVC

Format/Info                 : Advanced Video Codec

Format profile              : [email protected]

Format settings, CABAC      : Yes

Format settings, ReFrames   : 5 frames

Codec ID                    : V_MPEG4/ISO/AVC

Duration                    : 1 h 59 min

Bit rate mode               : Variable

Bit rate                    : 3 789 kb/s

Maximum bit rate            : 62.5 Mb/s

Width                       : 1 920 pixels

Height                      : 804 pixels

Display aspect ratio        : 2.40:1

Frame rate mode             : Constant

Frame rate                  : 25.000 FPS

Color space                 : YUV

Chroma subsampling          : 4:2:0

Bit depth                   : 8 bits

Scan type                   : Progressive

Bits/(Pixel*Frame)          : 0.098

Stream size                 : 3.17 GiB (85%)

Title                       : Oblivion.(2013).1080p.BDRip.Dual.Audio.Org.Hindi.5.1+Eng.5.1.-~{[email protected]}~-

Language                    : English

Default                     : Yes

Forced                      : No



Audio #1

ID                          : 2

Format                      : AC-3

Format/Info                 : Audio Coding 3

Mode extension              : CM (complete main)

Format settings, Endianness : Big

Codec ID                    : A_AC3

Duration                    : 1 h 59 min

Bit rate mode               : Constant

Bit rate                    : 448 kb/s

Channel(s)                  : 6 channels

Channel positions           : Front: L C R, Side: L R, LFE

Sampling rate               : 48.0 kHz

Frame rate                  : 31.250 FPS (1536 spf)

Compression mode            : Lossy

Stream size                 : 383 MiB (10%)

Title                       : RiPPER~ L3GEND~ Org BluRay [email protected] kbps~

Language                    : English

Default                     : No

Forced                      : No



Audio #2

ID                          : 3

Format                      : AC-3

Format/Info                 : Audio Coding 3

Mode extension              : CM (complete main)

Format settings, Endianness : Big

Codec ID                    : A_AC3

Duration                    : 1 h 59 min

Bit rate mode               : Constant

Bit rate                    : 224 kb/s

Channel(s)                  : 6 channels

Channel positions           : Front: L C R, Side: L R, LFE

Sampling rate               : 48.0 kHz

Frame rate                  : 31.250 FPS (1536 spf)

Compression mode            : Lossy

Stream size                 : 193 MiB (5%)

Title                       : RiPPER~ L3GEND~ Org DD [email protected] kbps~

Language                    : Hindi

Default                     : Yes

Forced                      : No



Text

ID                          : 4

Format                      : UTF-8

Codec ID                    : S_TEXT/UTF8

Codec ID/Info               : UTF-8 Plain Text

Duration                    : 1 h 57 min

Bit rate                    : 34 b/s

Count of elements           : 1026

Stream size                 : 28.7 KiB (0%)

Title                       : L3GEND~

Language                    : English

Default                     : No

Forced                      : No









































Share this topic on FacebookShare this topic on GoogleShare this topic on MySpaceShare this topic on TwitterShare this topic on Yahoo



Thanks given by:


November 27, 2017, 11:47:25 AM
Reply #1
  • Devoted Member
  • **
  • Thank You: 0
  • Reputation: 0
  • Activity:
    1%
  • Country: in
  • Posts: 147
  • Topics: 0
  • Join Date: Dec 2015
  • ShareSpark Member
« Last Edit: November 27, 2017, 11:51:29 AM by mehtabdc »

Tags:
 

Related Topics




Back to top