+ ShareSpark.net »  :::: Dubbed Zone (Dubbed English in Hindi) » English Movies Dubbed in Hindi » High Resolution Movies
|- Ben Hur (2016) BrRip 1080p Dual Audio{Hin(DD 5.1 448Kbps)-Eng}[email protected]$oul


Amazon Fashion

Ben Hur (2016) BrRip 1080p Dual Audio{Hin(DD 5.1 448Kbps)-Eng}[email protected]$oul

0 Members and 1 Guest are viewing this topic.

December 06, 2016, 11:32:32 AM
  • ♫♫♣ B૦ՐՈ T૦ H૯Նƿ ♣♫♫
  • Global Moderator
  • Legend Member
  • *****
  • Topic Author
  • Thank You: 1103
  • Reputation: 725
  • Activity:
    0%
  • Country: dk
  • Posts: 2712
  • Topics: 1192
  • Join Date: Jan 2013
  • ♠§§ Dσп'т Tαʟκ Jυƨт Acт §§ Dσп'т Sαч Jυƨт Sнσш §§♠
:title:
Ben Hur (2016) BrRip 1080p Dual Audio{Hin(DD 5.1 448Kbps)-Eng}[email protected]$oul



:info:
First on nET With US Version

Video
ID : 1
Format : AVC
Format/Info : Advanced Video Codec
Format profile : [email protected]
Format settings, CABAC : Yes
Format settings, ReFrames : 5 frames
Codec ID : V_MPEG4/ISO/AVC
Duration : 2 h 4 min
Bit rate : 2 850 kb/s
Width : 1 920 pixels
Height : 800 pixels
Display aspect ratio : 2.40:1
Frame rate mode : Constant
Frame rate : 23.976 (24000/1001) FPS
Color space : YUV
Chroma subsampling : 4:2:0
Bit depth : 8 bits
Scan type : Progressive
Bits/(Pixel*Frame) : 0.077
Stream size : 2.48 GiB (81%)
Title : [email protected]$oul

Audio #1
ID : 2
Format : AC-3
Format/Info : Audio Coding 3
Mode extension : CM (complete main)
Format settings, Endianness : Big
Codec ID : A_AC3
Duration : 2 h 4 min
Bit rate mode : Constant
Bit rate : 448 kb/s
Channel(s) : 6 channels
Channel positions : Front: L C R, Side: L R, LFE
Sampling rate : 48.0 kHz
Frame rate : 31.250 FPS (1536 spf)
Bit depth : 16 bits
Compression mode : Lossy
Stream size : 400 MiB (13%)
Language : Hindi
Default : Yes
Forced : No

Audio #2
ID : 3
Format : AC-3
Format/Info : Audio Coding 3
Mode extension : CM (complete main)
Format settings, Endianness : Big
Codec ID : A_AC3
Duration : 2 h 4 min
Bit rate mode : Constant
Bit rate : 224 kb/s
Channel(s) : 6 channels
Channel positions : Front: L C R, Side: L R, LFE
Sampling rate : 48.0 kHz
Frame rate : 31.250 FPS (1536 spf)
Bit depth : 16 bits
Compression mode : Lossy
Stream size : 200 MiB (6%)
Language : English
Default : No
Forced : No

Audio Source
GPSOFT



Hindi Audio is perfectly synced by ME :- Duration 2hr 04mins 43secs

:ss:



:download:
Sample ->

Full Movie ->





Share this topic on FacebookShare this topic on GoogleShare this topic on MySpaceShare this topic on TwitterShare this topic on Yahoo




If U like any post, then say thanks 2 d uploader by posting in his topic, adding thanks & reputes 2 him.:)

December 03, 2017, 06:32:47 PM
Reply #1
  • Devoted Member
  • **
  • Thank You: 0
  • Reputation: 1
  • Activity:
    7.4%
  • Country: in
  • Posts: 182
  • Topics: 0
  • Join Date: Dec 2015
  • ShareSpark Member
 :hi:
K4KIRIS

Please update the links bcs files are expired or removed .... Respected...All Admin
« Last Edit: December 03, 2017, 06:34:01 PM by mehtabdc »

December 03, 2017, 06:33:22 PM
Reply #2
  • Devoted Member
  • **
  • Thank You: 0
  • Reputation: 1
  • Activity:
    7.4%
  • Country: in
  • Posts: 182
  • Topics: 0
  • Join Date: Dec 2015
  • ShareSpark Member
:hi:
K4KIRISH

Please update the links bcs files are expired or removed .... Respected...All Admin

December 07, 2017, 04:56:47 PM
Reply #3
  • Devoted Member
  • **
  • Thank You: 0
  • Reputation: 1
  • Activity:
    7.4%
  • Country: in
  • Posts: 182
  • Topics: 0
  • Join Date: Dec 2015
  • ShareSpark Member

 

Related Topics





Back to top