+ ShareSpark.net »  :::: Bollywood Zone » Bollywood Movies (Original Rips)
|- Partition: 1947 (2017) 1CD DVDRip x264 [450MB] 1 Link


Partition: 1947 (2017) 1CD DVDRip x264 [450MB] 1 Link

0 Members and 1 Guest are viewing this topic.

October 11, 2017, 05:02:17 PM
  • Team SSX
  • Hot Member
  • ***
  • Topic Author
  • Thank You: 97
  • Reputation: 16
  • Activity:
    6.8%
  • Country: pk
  • Posts: 601
  • Topics: 399
  • Join Date: Nov 2012
  • ShareSpark Member







Code: [Select]
General
Complete name                            : Partition.1947.2017.1CD.DVDRip.x264.ESubs.By.Rj.Rabasha.mp4
Format                                   : MPEG-4
Format profile                           : Base Media
Codec ID                                 : isom (isom/iso2/avc1/mp41)
File size                                : 449 MiB
Duration                                 : 1 h 48 min
Overall bit rate                         : 579 kb/s
Writing application                      : Lavf57.71.100

Video
ID                                       : 1
Format                                   : AVC
Format/Info                              : Advanced Video Codec
Format profile                           : [email protected]
Format settings                          : CABAC / 5 Ref Frames
Format settings, CABAC                   : Yes
Format settings, RefFrames               : 5 frames
Codec ID                                 : avc1
Codec ID/Info                            : Advanced Video Coding
Duration                                 : 1 h 48 min
Bit rate                                 : 512 kb/s
Width                                    : 720 pixels
Height                                   : 304 pixels
Display aspect ratio                     : 2.35:1
Frame rate mode                          : Constant
Frame rate                               : 23.976 (24000/1001) FPS
Color space                              : YUV
Chroma subsampling                       : 4:2:0
Bit depth                                : 8 bits
Scan type                                : Progressive
Bits/(Pixel*Frame)                       : 0.098
Stream size                              : 396 MiB (88%)
Writing library                          : x264 core 148 r2643 5c65704
Encoding settings                        : cabac=1 / ref=5 / deblock=1:0:0 / analyse=0x3:0x113 / me=hex / subme=7 / psy=1 / psy_rd=1.00:0.00 / mixed_ref=1 / me_range=16 / chroma_me=1 / trellis=1 / 8x8dct=1 / cqm=0 / deadzone=21,11 / fast_pskip=1 / chroma_qp_offset=-2 / threads=4 / lookahead_threads=4 / sliced_threads=1 / slices=4 / nr=0 / decimate=1 / interlaced=0 / bluray_compat=0 / constrained_intra=0 / bframes=0 / weightp=2 / keyint=250 / keyint_min=23 / scenecut=40 / intra_refresh=0 / rc=abr / mbtree=0 / bitrate=512 / ratetol=1.0 / qcomp=0.60 / qpmin=0 / qpmax=69 / qpstep=4 / ip_ratio=1.40 / aq=1:1.00
Language                                 : Hindi

Audio
ID                                       : 2
Format                                   : AAC
Format/Info                              : Advanced Audio Codec
Format profile                           : LC
Codec ID                                 : mp4a-40-2
Duration                                 : 1 h 48 min
Bit rate mode                            : Constant
Bit rate                                 : 64.5 kb/s
Channel(s)                               : 2 channels
Channel positions                        : Front: L R
Sampling rate                            : 48.0 kHz
Frame rate                               : 46.875 FPS (1024 SPF)
Compression mode                         : Lossy
Stream size                              : 50.1 MiB (11%)
Language                                 : Hindi
Default                                  : Yes
Alternate group                          : 1
























Code: [Select]
https://openload.co/f/8FoQj89kVNM


Code: [Select]
https://bdupload.info/mcf2i9hhid73


Code: [Select]
http://www.indishare.me/xqwbetca11do


Code: [Select]
http://katfile.com/ovz793dykpp9/Backup0.Partition.1947.2017.1CD.DVDRip.x264.ESubs.By.Rj.Rabasha.zip.html


Code: [Select]
https://subyshare.com/vzocq2ptz1ok/Backup0.Partition.1947.2017.1CD.DVDRip.x264.ESubs.By.Rj.Rabasha.zip.html






Share this topic on FacebookShare this topic on GoogleShare this topic on MySpaceShare this topic on TwitterShare this topic on Yahoo




Tags:
 

Related Topics





Back to top