+ ShareSpark.net »  :::: Bollywood Zone » Regional Movies
|- Veedevadu (2017) (Telugu) 1CD HDCAM x264 [750MB] 1 Link


Veedevadu (2017) (Telugu) 1CD HDCAM x264 [750MB] 1 Link

0 Members and 1 Guest are viewing this topic.

October 11, 2017, 06:02:18 PM
  • Team SSX
  • Hot Member
  • ***
  • Topic Author
  • Thank You: 109
  • Reputation: 18
  • Activity:
    15.2%
  • Country: pk
  • Posts: 640
  • Topics: 420
  • Join Date: Nov 2012
  • ShareSpark Member







IMDB:
Code: [Select]
http://www.imdb.com/title/tt7380284/
Code: [Select]
General
Complete name                            : Veedevadu.2017.Telugu.1CD.HDCAM.x264.By.Rj.Rabasha.mp4
Format                                   : MPEG-4
Format profile                           : Base Media
Codec ID                                 : isom (isom/iso2/avc1/mp41)
File size                                : 743 MiB
Duration                                 : 1 h 51 min
Overall bit rate                         : 936 kb/s
Writing application                      : Lavf57.71.100

Video
ID                                       : 1
Format                                   : AVC
Format/Info                              : Advanced Video Codec
Format profile                           : [email protected]
Format settings                          : CABAC / 5 Ref Frames
Format settings, CABAC                   : Yes
Format settings, RefFrames               : 5 frames
Codec ID                                 : avc1
Codec ID/Info                            : Advanced Video Coding
Duration                                 : 1 h 51 min
Bit rate                                 : 843 kb/s
Width                                    : 704 pixels
Height                                   : 304 pixels
Display aspect ratio                     : 2.35:1
Frame rate mode                          : Constant
Frame rate                               : 25.000 FPS
Color space                              : YUV
Chroma subsampling                       : 4:2:0
Bit depth                                : 8 bits
Scan type                                : Progressive
Bits/(Pixel*Frame)                       : 0.157
Stream size                              : 670 MiB (90%)
Writing library                          : x264 core 148 r2643 5c65704
Encoding settings                        : cabac=1 / ref=5 / deblock=1:0:0 / analyse=0x3:0x113 / me=hex / subme=7 / psy=1 / psy_rd=1.00:0.00 / mixed_ref=1 / me_range=16 / chroma_me=1 / trellis=1 / 8x8dct=1 / cqm=0 / deadzone=21,11 / fast_pskip=1 / chroma_qp_offset=-2 / threads=4 / lookahead_threads=4 / sliced_threads=1 / slices=4 / nr=0 / decimate=1 / interlaced=0 / bluray_compat=0 / constrained_intra=0 / bframes=0 / weightp=2 / keyint=250 / keyint_min=25 / scenecut=40 / intra_refresh=0 / rc=crf / mbtree=0 / crf=23.0 / qcomp=0.60 / qpmin=0 / qpmax=69 / qpstep=4 / ip_ratio=1.40 / aq=1:1.00

Audio
ID                                       : 2
Format                                   : AAC
Format/Info                              : Advanced Audio Codec
Format profile                           : LC
Codec ID                                 : mp4a-40-2
Duration                                 : 1 h 51 min
Duration_LastFrame                       : -11 ms
Bit rate mode                            : Constant
Bit rate                                 : 88.4 kb/s
Channel(s)                               : 2 channels
Channel positions                        : Front: L R
Sampling rate                            : 48.0 kHz
Frame rate                               : 46.875 FPS (1024 SPF)
Compression mode                         : Lossy
Stream size                              : 70.3 MiB (9%)
Default                                  : Yes
Alternate group                          : 1

















Code: [Select]
https://openload.co/f/gZRzkRwdBJQ


Code: [Select]
https://bdupload.info/stol8ni1kf0m


Code: [Select]
http://www.indishare.me/jutnhg0768o3


Code: [Select]
http://katfile.com/xh8q5biy9hh1/Backup1.Veedevadu.2017.Telugu.1CD.HDCAM.x264.By.Rj.Rabasha.mp4.html






Share this topic on FacebookShare this topic on GoogleShare this topic on MySpaceShare this topic on TwitterShare this topic on Yahoo

« Last Edit: October 25, 2017, 08:28:06 PM by Rabasha »



October 25, 2017, 08:28:24 PM
Reply #1
  • Team SSX
  • Hot Member
  • ***
  • Topic Author
  • Thank You: 109
  • Reputation: 18
  • Activity:
    15.2%
  • Country: pk
  • Posts: 640
  • Topics: 420
  • Join Date: Nov 2012
  • ShareSpark Member

Tags:
 

Related Topics





Back to top