+ ShareSpark.net »  :::: Dubbed Zone (Dubbed English in Hindi) » English Movies Dubbed in Hindi
|- Code Name The Cleaner 2007 720p Esub BluRay Dual Audio English Hindi GOPISAHI


Code Name The Cleaner 2007 720p Esub BluRay Dual Audio English Hindi GOPISAHI

0 Members and 1 Guest are viewing this topic.

October 12, 2017, 10:13:15 AM
  • Team SSX
  • Elite Member
  • ***
  • Topic Author
  • Thank You: 217
  • Reputation: 54
  • Activity:
    60.4%
  • Country: in
  • Posts: 489
  • Topics: 458
  • Join Date: Oct 2013
  • ShareSpark Member

Format                         : Matroska
Format version                 : Version 4 / Version 2
File size                      : 577 MiB
Duration                       : 1 h 31 min
Overall bit rate               : 885 kb/s
Movie name                     : Code Name The Cleaner 2007 GOPISAHI

Video        
Format                         : AVC
Codec ID                       : V_MPEG4/ISO/AVC
Duration                       : 1 h 31 min
Bit rate                       : 699 kb/s
Width                          : 1 280 pixels
Height                         : 692 pixels
Display aspect ratio           : 1.85:1
Frame rate mode                : Constant
Frame rate                     : 24.000 FPS
Stream size                    : 456 MiB (79%)
Writing library                : x264

Audio #1
Format                         : AAC
Duration                       : 1 h 31 min
Bit rate                       : 88.9 kb/s
Channel(s)                     : 6 channels
Channel positions              : Front: L C R, Side: L R, LFE
Sampling rate                  : 44.1 kHz
Frame rate                     : 43.066 FPS (1024 SPF)
Stream size                    : 58.0 MiB (10%)
Language                       : English

Audio #2
Format                         : AAC
Duration                       : 1 h 30 min
Bit rate                       : 96.0 kb/s
Channel(s)                     : 6 channels
Channel positions              : Front: L C R, Side: L R, LFE
Sampling rate                  : 44.1 kHz
Frame rate                     : 43.066 FPS (1024 SPF)
Stream size                    : 61.5 MiB (11%)
Title                          : GOPISAHI
Language                       : Hindi

SUB ENGLISH NOT MUX





Subtitle English





MOVIE























Share this topic on FacebookShare this topic on GoogleShare this topic on MySpaceShare this topic on TwitterShare this topic on Yahoo




Tags:
 

Related Topics





Back to top