+ ShareSpark.net »  :::: Dubbed Zone (Dubbed English in Hindi) » English Movies Dubbed in Hindi » High Resolution Movies
|- Valerian and the City of a Thousand Planets 2017 2017 BluRay 1080p x264[Hindi(Org)+Eng] - Hon3y [GD]


Valerian and the City of a Thousand Planets 2017 2017 BluRay 1080p x264[Hindi(Org)+Eng] - Hon3y [GD]

0 Members and 1 Guest are viewing this topic.

December 05, 2017, 10:53:36 AM
  • Global Moderator
  • Legend Member
  • *****
  • Topic Author
  • Thank You: 4659
  • Reputation: 924
  • Activity:
    100%
  • Country: in
  • Posts: 3655
  • Topics: 3071
  • Join Date: Jan 2014
  • ıllıllı ѕмoĸιng ιѕ good ғor нealтн ıllıllı :)
Valerian and the City of a Thousand Planets 2017 2017 BluRay 1080p x264[Hindi(Org)+Eng] - Hon3y [GD]




Quote
Format                      : Matroska
Format version              : Version 4 / Version 2
File size                   : 4.22 GiB
Duration                    : 2 h 17 min
Overall bit rate            : 4 406 kb/s

Video
ID                          : 1
Format                      : AVC
Format/Info                 : Advanced Video Codec
Format profile              : [email protected]
Format settings, CABAC      : Yes
Format settings, RefFrames  : 5 frames
Codec ID                    : V_MPEG4/ISO/AVC
Duration                    : 2 h 17 min
Bit rate                    : 3 412 kb/s
Width                       : 1 920 pixels
Height                      : 800 pixels
Display aspect ratio        : 2.40:1
Frame rate mode             : Constant
Frame rate                  : 23.976 (24000/1001) FPS

Audio #1
ID                          : 2
Format                      : AC-3
Format/Info                 : Audio Coding 3
Format settings, Endianness : Big
Codec ID                    : A_AC3
Duration                    : 2 h 16 min
Bit rate mode               : Constant
Bit rate                    : 224 kb/s
Channel(s)                  : 6 channels
Channel positions           : Front: L C R, Side: L R, LFE
Sampling rate               : 48.0 kHz
Frame rate                  : 31.250 FPS (1536 SPF)
Bit depth                   : 16 bits
Compression mode            : Lossy
Delay relative to video     : 21 s 300 ms
Stream size                 : 219 MiB (5%)
Language                    : Hindi

Audio #2
ID                          : 3
Format                      : DTS
Format/Info                 : Digital Theater Systems
Mode                        : 16
Format settings, Endianness : Big
Codec ID                    : A_DTS
Duration                    : 2 h 17 min
Bit rate mode               : Constant
Bit rate                    : 768 kb/s
Channel(s)                  : 6 channels
Channel positions           : Front: L C R, Side: L R, LFE
Sampling rate               : 48.0 kHz
Frame rate                  : 93.750 FPS (512 SPF)
Bit depth                   : 24 bits
Compression mode            : Lossy
Stream size                 : 753 MiB (17%)
Language                    : English

Text #1
ID                          : 4
Format                      : UTF-8
Codec ID                    : S_TEXT/UTF8
Codec ID/Info               : UTF-8 Plain Text
Duration                    : 2 h 13 min
Bit rate                    : 63 b/s
Count of elements           : 1906
Stream size                 : 62.1 KiB (0%)
Language                    : English
Default                     : Yes
Forced                      : No

:ss:











:download:

Quote








File Leeched & Uploaded From




Don't walk as you are king, walk as you don't care who the king is....!!
Never argue with an idiot. They drag you down to their level and then beat you with experience?

Share this topic on FacebookShare this topic on GoogleShare this topic on MySpaceShare this topic on TwitterShare this topic on Yahoo

« Last Edit: December 05, 2017, 10:54:46 AM by Rάήνίјάч1234 »



Don't walk as you are king, walk as you don't care who the king is....!!

Thanks given by:


December 22, 2017, 08:28:17 PM
Reply #1
  • Semi Newbie
  • **
  • Thank You: 0
  • Reputation: 0
  • Activity:
    2.2%
  • Country: bd
  • Posts: 11
  • Topics: 0
  • Join Date: Mar 2017
  • ShareSpark Member

Tags:
 

Related Topics





Back to top