+ ShareSpark.net »  :::: Dubbed Zone (Dubbed English in Hindi) » English Movies Dubbed in Hindi » High Resolution Movies
|- Valerian And The City Of A Thousand Planets 2017 1080p BluRay X264 Dual Audio [Hindi +Eng] DD 5.0 -

Mobile Recharge Offer 20% Off
  • Valerian And The City Of A Thousand Planets 2017 1080p BluRay X264 Dual Audio [Hindi +Eng] DD 5.0 - 5 1
Currently:  

Valerian And The City Of A Thousand Planets 2017 1080p BluRay X264 Dual Audio [Hindi +Eng] DD 5.0 -

0 Members and 1 Guest are viewing this topic.

December 05, 2017, 11:12:05 AM
  • Global Moderator
  • Legend Member
  • *****
  • Topic Author
  • Thank You: 7340
  • Reputation: 1609
  • Activity:
    100%
  • Country: in
  • Posts: 4456
  • Topics: 3708
  • Join Date: Jan 2014
  • ıllıllı ѕмoĸιng ιѕ good ғor нealтн ıllıllı :)







Valerian And The City Of A Thousand Planets 2017 1080p BluRay X264 Dual Audio [Hindi +Eng] DD 5.0 - Esub ~ Ranvijay



Thanks To Rohit Sharma For Hindi Audio

Quote
Format                                   : Matroska
Format version                           : Version 4 / Version 2
File size                                : 7.82 GiB
Duration                                 : 2 h 17 min
Overall bit rate                         : 8 164 kb/s
Movie name                               : Valerian And The City Of A Thousand Planets 2017 1080p BluRay X264 Dual Audio [Hindi +Eng] DD 5.0 - Esub ~ Ranvijay

Video
ID                                       : 1
Format                                   : AVC
Duration                                 : 2 h 16 min
Bit rate                                 : 7 277 kb/s
Width                                    : 1 920 pixels
Height                                   : 804 pixels
Display aspect ratio                     : 2.40:1
Frame rate mode                          : Constant
Frame rate                               : 24.000 FPS
Stream size                              : 6.97 GiB (89%)
Title                                    : ~Ranvijay~
Language                                 : English
Default                                  : Yes
Forced                                   : No

Audio #1
ID                                       : 2
Format                                   : AC-3
Format/Info                              : Audio Coding 3
Format settings, Endianness              : Big
Codec ID                                 : A_AC3
Duration                                 : 2 h 16 min
Bit rate mode                            : Constant
Bit rate                                 : 224 kb/s
Channel(s)                               : 6 channels
Channel positions                        : Front: L C R, Side: L R, LFE
Sampling rate                            : 48.0 kHz
Frame rate                               : 31.250 FPS (1536 SPF)
Bit depth                                : 16 bits
Compression mode                         : Lossy
Delay relative to video                  : 21 s 300 ms
Stream size                              : 219 MiB (3%)
Title                                    : ~Ranvijay~
Language                                 : Hindi
Service kind                             : Complete Main
Default                                  : Yes
Forced                                   : No

Audio #2
ID                                       : 3
Format                                   : AC-3
Format/Info                              : Audio Coding 3
Format settings, Endianness              : Big
Codec ID                                 : A_AC3
Duration                                 : 2 h 17 min
Bit rate mode                            : Constant
Bit rate                                 : 640 kb/s
Channel(s)                               : 6 channels
Channel positions                        : Front: L C R, Side: L R, LFE
Sampling rate                            : 48.0 kHz
Frame rate                               : 31.250 FPS (1536 SPF)
Bit depth                                : 16 bits
Compression mode                         : Lossy
Stream size                              : 627 MiB (8%)
Title                                    : ~Ranvijay~
Language                                 : English
Service kind                             : Complete Main
Default                                  : No
Forced                                   : No

Text #1
ID                                       : 4
Format                                   : PGS
Muxing mode                              : zlib
Codec ID                                 : S_HDMV/PGS
Codec ID/Info                            : Picture based subtitle format used on BDs/HD-DVDs
Duration                                 : 2 h 13 min
Bit rate                                 : 44.1 kb/s
Count of elements                        : 3827
Stream size                              : 42.1 MiB (1%)
Title                                    : ~Ranvijay~
Language                                 : English
Default                                  : Yes
Forced                                   : No

Text #2
ID                                       : 5
Format                                   : PGS
Muxing mode                              : zlib
Codec ID                                 : S_HDMV/PGS
Codec ID/Info                            : Picture based subtitle format used on BDs/HD-DVDs
Duration                                 : 39 min 25 s
Bit rate                                 : 284 b/s
Count of elements                        : 34
Stream size                              : 82.3 KiB (0%)
Title                                    : ~Ranvijay~
Language                                 : English
Default                                  : No
Forced                                   : No

Menu
00:00:00.000                             : en:00:00:00.000
00:12:35.713                             : en:00:12:35.713
00:17:29.590                             : en:00:17:29.590
00:23:35.789                             : en:00:23:35.789
00:32:45.839                             : en:00:32:45.839
00:41:19.143                             : en:00:41:19.143
00:47:15.666                             : en:00:47:15.666
00:56:12.411                             : en:00:56:12.411
01:04:25.695                             : en:01:04:25.695
01:11:27.908                             : en:01:11:27.908
01:20:25.070                             : en:01:20:25.070
01:28:13.705                             : en:01:28:13.705
01:35:53.915                             : en:01:35:53.915
01:41:35.047                             : en:01:41:35.047
01:53:37.853                             : en:01:53:37.853
02:02:22.585                             : en:02:02:22.585



















:download:

Quote





File Leeched & Uploaded From




Don't walk as you are king, walk as you don't care who the king is....!!
Never argue with an idiot. They drag you down to their level and then beat you with experience?

Share this topic on FacebookShare this topic on GoogleShare this topic on MySpaceShare this topic on TwitterShare this topic on Yahoo




Don't walk as you are king, walk as you don't care who the king is....!!

Thanks given by:


December 05, 2017, 01:46:15 PM
Reply #1
  • Senior Member
  • ***
  • Thank You: 0
  • Reputation: 1
  • Activity:
    7%
  • Country: pk
  • Posts: 212
  • Topics: 0
  • Join Date: Jul 2017
  • ShareSpark Member
Thank You Very Very Very Much...
This Google Drive Link Is Just Fabulous.....
Osm Work.......And Again Thanks For Gr8 Links....

December 05, 2017, 05:47:50 PM
Reply #2
  • Elite Moderator
  • Legend Member
  • ****
  • Thank You: 1996
  • Reputation: 286
  • Activity:
    0.4%
  • Country: in
  • Posts: 3704
  • Topics: 2845
  • Join Date: Sep 2016
  • (: EnJOy D LiFe :)

Tags:
 

Related Topics




Back to top