+ ShareSpark.net »  :::: Dubbed Zone (Dubbed English in Hindi) » English Movies Dubbed in Hindi » High Resolution Movies
|- Next (2007) 1080p BDRip[Hindi(448Kbps)-Eng(448Kbps)]DD5.1-DGrea8

Weekend Pay And Play 50% Off
  • Next (2007) 1080p BDRip[Hindi(448Kbps)-Eng(448Kbps)]DD5.1-DGrea8 5 1
Currently:  

Next (2007) 1080p BDRip[Hindi(448Kbps)-Eng(448Kbps)]DD5.1-DGrea8

0 Members and 1 Guest are viewing this topic.

November 04, 2013, 05:30:12 PM
  • Admin
  • Legend Member
  • ****
  • Topic Author
  • Thank You: 4172
  • Reputation: 2276
  • Activity:
    0%
  • Country: in
  • Posts: 4776
  • Topics: 2539
  • Join Date: May 2013
  • ShareSpark Member
1St On Net Org. DVD Hindi Audio 448Kbps

Next (2007) 1080p BDRip[Hindi(448Kbps)-Eng(448Kbps)]DD5.1-DGrea8




:info:

Rating:-6.1/10



Las Vegas showroom magician Cris Johnson has a secret which torments him: he can see a few minutes into the future. Sick of the examinations he underwent as a child and the interest of the government and medical establishment in his power, he lies low under an assumed name in Vegas, performing cheap tricks and living off small-time gambling "winnings." But when a terrorist group threatens to detonate a nuclear device in Los Angeles, government agent Callie Ferris must use all her wiles to capture Cris and convince him to help her stop the cataclysm.



Nicolas Cage ... Cris Johnson
Julianne Moore ... Callie Ferris
Jessica Biel ... Liz Cooper
Thomas Kretschmann ... Mr. Smith
Tory Kittles ... Cavanaugh
José Zúñiga ... Security Chief Roybal (as Jose Zuniga)
Jim Beaver ... NSA Director Wisdom
Jason Butler Harner ... Jeff Baines
Michael Trucco ... Kendall
Enzo Cilenti ... Mr. Jones
Laetitia Danielle ... Miss Brown
Nicolas Pajon ... Mr. Green
Sergej Trifunovic ... Mr. White
Charles Rahi Chun ... Davis (as Charles Chun)
Patricia Prata ... Showgirl



Director: Lee Tamahori
Writers: Gary Goldman (screenplay), Jonathan Hensleigh (screenplay)
Stars: Nicolas Cage, Julianne Moore, Jessica Biel
Release Date: 27 April 2007 (USA)
Genres: Action | Sci-Fi | Thriller



Video
ID : 1
Format : AVC
Format/Info : Advanced Video Codec
Format profile : [email protected]
Format settings, CABAC : Yes
Format settings, ReFrames : 5 frames
Muxing mode : Header stripping
Codec ID : V_MPEG4/ISO/AVC
Duration : 1h 36mn
Bit rate : 1 913 Kbps
Width : 1 920 pixels
Height : 800 pixels
Display aspect ratio : 2.40:1
Frame rate mode : Constant
Frame rate : 23.976 fps
Color space : YUV
Chroma subsampling : 4:2:0
Bit depth : 8 bits
Scan type : Progressive
Duration : 1h 36mn
Overall bit rate : 2805 Kbps



Audio #1
ID : 2
Format : AC-3
Format/Info : Audio Coding 3
Mode extension : CM (complete main)
Format settings, Endianness : Big
Muxing mode : Header stripping
Codec ID : A_AC3
Duration : 1h 36mn
Bit rate mode : Constant
Bit rate : 448 Kbps
Channel(s) : 6 channels
Channel positions : Front: L C R, Side: L R, LFE
Sampling rate : 48.0 KHz
Bit depth : 16 bits
Compression mode : Lossy
Delay relative to video : 24ms
Stream size : 308 MiB (16%)
Language : Hindi
Default : Yes
Forced : No

Audio #2
ID : 3
Format : AC-3
Format/Info : Audio Coding 3
Mode extension : CM (complete main)
Format settings, Endianness : Big
Muxing mode : Header stripping
Codec ID : A_AC3
Duration : 1h 36mn
Bit rate mode : Constant
Bit rate : 448 Kbps
Channel(s) : 6 channels
Channel positions : Front: L C R, Side: L R, LFE
Sampling rate : 48.0 KHz
Bit depth : 16 bits
Compression mode : Lossy
Stream size : 308 MiB (16%)
Language : English
Subtitle : English

:ss:








:download:

:::::::  SAMPLE  :::::::



Full Movie


















IF YOU LIKE MY POST HIT THANKS

AND

ADD REPUTATION +

Share this topic on FacebookShare this topic on GoogleShare this topic on MySpaceShare this topic on TwitterShare this topic on Yahoo

« Last Edit: November 04, 2013, 05:32:22 PM by sσи¡иdєяsσиý »


Thanks given by:


November 06, 2013, 12:22:31 AM
Reply #1

November 26, 2017, 11:39:40 AM
Reply #2
  • Devoted Member
  • **
  • Thank You: 0
  • Reputation: 1
  • Activity:
    1%
  • Country: in
  • Posts: 150
  • Topics: 0
  • Join Date: Dec 2015
  • ShareSpark Member
Please update the links bcs files are expired or removed .... Respected...All Admin :coffee:

Tags:
 

Related Topics




Back to top