+ ShareSpark.net »  :::: Dubbed Zone (Dubbed English in Hindi) » English Movies Dubbed in Hindi » High Resolution Movies
|- The Cave 2005 BDRip 1080p Dual Audio [ Hindi ORG DD 5.1 Eng 5.1 ] Tariq Qureshi

10% Off with Visa

The Cave 2005 BDRip 1080p Dual Audio [ Hindi ORG DD 5.1 Eng 5.1 ] Tariq Qureshi

0 Members and 1 Guest are viewing this topic.

June 11, 2014, 04:58:07 PM
  • Conqueror (Inactive)
  • Hero Member
  • *****
  • Topic Author
  • Thank You: 195
  • Reputation: 91
  • Activity:
    0%
  • Country: af
  • Posts: 345
  • Topics: 235
  • Join Date: Feb 2014
  • Tum Bin



The Cave 2005 BDRip 1080p Dual Audio [ Hindi ORG DD 5.1 Eng 5.1 ] Tariq Qureshi







============================================================================
============================================================================
Thanks To SAM,OZIMAN,TAKER AND ALL ADMINS,MOD
============================================================================

:GENERAL INFO:
Format : Matroska
Format : Matroska
Format version : Version 4 / Version 2
File size : 2.98 GiB
Duration : 1h 37mn
Overall bit rate : 4 397 Kbps
Frontend And Writing Library : megui
Movie name :The Cave 2005 BDRip 1080p Dual Audio [ Hindi ORG DD 5.1 Eng 5.1 ] Tariq Qureshi.mkv

============================================================================

:VIDEO INFO:
ID : 1
Format : AVC
Format/Info : Advanced Video Codec
Format profile : [email protected]
Format settings, CABAC : Yes
Format settings, ReFrames : 5 frames
Codec ID : V_MPEG4/ISO/AVC
Duration : 1h 37mn
Bit rate : 3 500 Kbps
Width : 1 920 pixels
Height : 800 pixels
Display aspect ratio : 2.40:1
Frame rate mode : Constant
Frame rate : 23.976 fps
Stream size : 2.32 GiB (78%)
Language : English
Default : Yes
Forced : No

============================================================================

:AUDIO 1:
ID : 2
Format : AC-3
Format/Info : Audio Coding 3
Mode extension : CM (complete main)
Format settings, Endianness : Big
Codec ID : A_AC3
Duration : 1h 37mn
Bit rate mode : Constant
Bit rate : 448 Kbps
Channel(s) : 6 channels
Channel positions : Front: L C R, Side: L R, LFE
Sampling rate : 48.0 KHz
Bit depth : 16 bits
Compression mode : Lossy
Stream size : 311 MiB (10%)
Title : ORG DD5.1 @448 Kbps Tariq Qureshi
Language : Hindi
Default : Yes
Forced : No

============================================================================

:AUDIO 2:
ID : 3
Format : AC-3
Format/Info : Audio Coding 3
Mode extension : CM (complete main)
Format settings, Endianness : Big
Codec ID : A_AC3
Duration : 1h 37mn
Bit rate mode : Constant
Bit rate : 448 Kbps
Channel(s) : 6 channels
Channel positions : Front: L C R, Side: L R, LFE
Sampling rate : 48.0 KHz
Bit depth : 16 bits
Compression mode : Lossy
Stream size : 311 MiB (10%)
Title : 5.1 448Kbps Tariq Qureshi
Language : English
Default : No
Forced : No

============================================================================

:SUBTITLE:
Text
ID : 4
ID : 4
Format : UTF-8
Codec ID : S_TEXT/UTF8
Codec ID/Info : UTF-8 Plain Text
Title : Tariq Qureshi
Language : English
Default : No
Forced : No
============================================================================



















 :download:



































Share this topic on FacebookShare this topic on GoogleShare this topic on MySpaceShare this topic on TwitterShare this topic on Yahoo



Thanks given by:


June 11, 2014, 05:15:07 PM
Reply #1
  • Premium Uploader
  • Conqueror (Inactive)
  • Special Member
  • *****
  • Thank You: 176
  • Reputation: 88
  • Activity:
    0%
  • Country: in
  • Posts: 655
  • Topics: 184
  • Join Date: Sep 2013
  • ShareSpark Member

June 11, 2014, 05:30:31 PM
Reply #2
  • Junior Mod (Inactive)
  • Royal Member
  • ***
  • Thank You: 395
  • Reputation: 234
  • Activity:
    0%
  • Posts: 943
  • Topics: 213
  • Join Date: Oct 2013
  • NEVER STOP DREAMING

June 11, 2014, 07:02:26 PM
Reply #3
  • Royal Member
  • ****
  • Thank You: 1
  • Reputation: 5
  • Activity:
    0%
  • Country: bh
  • Posts: 906
  • Topics: 0
  • Join Date: May 2012
  • ShareSpark Member

November 27, 2017, 03:47:00 PM
Reply #4
  • Newbie
  • **
  • Thank You: 0
  • Reputation: 0
  • Activity:
    0%
  • Country: in
  • Posts: 4
  • Topics: 0
  • Join Date: Oct 2015
  • ShareSpark Member

Tags:
 

Related Topics




Back to top