+ ShareSpark.net »  :::: Dubbed Zone (Dubbed English in Hindi) » English Movies Dubbed in Hindi » High Resolution Movies
|- Sahara (2005)1080p BDRip In[Hindi-Eng]6CH.AC3 By !!!dip


10% SBI and 10% Discount

Sahara (2005)1080p BDRip In[Hindi-Eng]6CH.AC3 By !!!dip

0 Members and 1 Guest are viewing this topic.

July 20, 2014, 08:58:50 PM
  • •?((¯°·._.• [email protected]ţɨɲ[email protected]ţɨɲ •._.·°¯))؟•
  • Elite Mod (Inactive)
  • Legend Member
  • ****
  • Topic Author
  • Thank You: 1600
  • Reputation: 784
  • Activity:
    0%
  • Posts: 2758
  • Topics: 1761
  • Join Date: Feb 2014
  • •]••´º´•» gσσ∂ вує «•´º´••[•


Sahara (2005)1080p BDRip In[Hindi-Eng]6CH.AC3 By !!!dip








Master explorer and former US Navy Seal Dirk Pitt and his wisecracking buddy Al Giordino goes on the adventure of a lifetime of seeking out a lost Civil War ironclad battleship known as the "Ship of Death" that protects a secret cargo is lost somewhere in the deserts of West Africa. But while the two cross paths with a beautiful and brilliant U.N. scientist Dr. Eva Rojas who is being hounded by a ruthless dictator. She believes that the hidden treasure may be connected to a larger problem that threatens the world around them. Hunting for a ship that no one else thinks exists, Dirk, Al, and Eva must rely on their wits and their daring heroics to outsmart dangerous warlords, survive the threatening terrain, and get to the bottom of both mysteries.




Matthew McConaughey......Dirk Pitt
Steve Zahn...............Al Giordino
Penélope Cruz............Eva Rojas
William H. Macy..........Admiral Jim Sandecker
Rainn Wilson.............Rudi Gunn
Delroy Lindo.............Carl
Lambert Wilson...........Yves Massarde
Lennie James.............General Zateb Kazim
Robert Cavanah...........Captain Tombs
Jude Akuwudike...........Imam
Mark Aspinall............Lawyer
Rakie Ayola..............Mrs. Nwokolo
Christopher Bello........Train Driver
Nicholas Beveney.........Gunboat 1 Officer
Empotoe Bosage...........Pick Up Truck Guard


Directors :Breck Eisner
Writers :Clive Cussler (novel), Thomas Dean Donnelly (screenplay)
Stars: Matthew McConaughey, Penélope Cruz and Steve Zahn
Genre: Action | Adventure | Comedy
Language:[English-Hindi]6CH.AC3
Format :Color, Dubbed,Widescreen
Encoder:Deep Shikha




Release Title/Year/Language...:Heroes(Season-1) E-03 Bluray Rip In[Hindi-Eng]By !!!dip

Video
ID : 1
Format : AVC
Format/Info : Advanced Video Codec
Format profile : [email protected]
Format settings, CABAC : Yes
Format settings, ReFrames : 4 frames
Muxing mode : Header stripping
Codec ID : V_MPEG4/ISO/AVC
Duration : 1h 58mn
Bit rate : 3 244 Kbps
Width : 1 920 pixels
Height : 800 pixels
Display aspect ratio : 2.40:1
Frame rate mode : Variable
Frame rate : 25.000 fps
Color space : YUV
Chroma subsampling : 4:2:0
Bit depth : 8 bits
Scan type : Progressive
Bits/(Pixel*Frame) : 0.084
Stream size : 2.69 GiB (77%)
Title : !!!dip
Team : DK Group HD Bluray Releases




Audio #1
ID : 2
Format : AC-3
Format/Info : Audio Coding 3
Mode extension : CM (complete main)
Muxing mode : Header stripping
Codec ID : A_AC3
Duration : 1h 58mn
Bit rate mode : Constant
Bit rate : 448 Kbps
Channel(s) : 6 channels
Channel positions : Front: L C R, Side: L R, LFE
Sampling rate : 48.0 KHz
Bit depth : 16 bits
Compression mode : Lossy
Delay relative to video : 7ms
Stream size : 381 MiB (11%)
Title : !!!dip
Language : English

Audio #2
ID : 3
Format : AC-3
Format/Info : Audio Coding 3
Mode extension : CM (complete main)
Muxing mode : Header stripping
Codec ID : A_AC3
Duration : 1h 58mn
Bit rate mode : Constant
Bit rate : 448 Kbps
Channel(s) : 6 channels
Channel positions : Front: L C R, Side: L R, LFE
Sampling rate : 48.0 KHz
Bit depth : 16 bits
Compression mode : Lossy
Delay relative to video : 1s 20ms
Stream size : 381 MiB (11%)
Title : !!!dip
Language : Hindi

Text
ID : 4
Format : UTF-8
Codec ID : S_TEXT/UTF8
Codec ID/Info : UTF-8 Plain Text
Title : !!!dip










[email protected]



Full MOV3 Link!!!











Share this topic on FacebookShare this topic on GoogleShare this topic on MySpaceShare this topic on TwitterShare this topic on Yahoo




July 21, 2014, 07:21:25 AM
Reply #1

July 21, 2014, 10:09:25 AM
Reply #2
  • Royal Member
  • ****
  • Thank You: 1
  • Reputation: 5
  • Activity:
    0%
  • Country: bh
  • Posts: 906
  • Topics: 0
  • Join Date: May 2012
  • ShareSpark Member
« Last Edit: July 21, 2014, 10:09:51 AM by jami5490 »

July 21, 2014, 08:19:36 PM
Reply #3
  • Hero Member
  • ***
  • Thank You: 0
  • Reputation: 6
  • Activity:
    0.2%
  • Country: in
  • Posts: 323
  • Topics: 2
  • Join Date: Jan 2014
  • ShareSpark Member

November 16, 2017, 07:32:28 PM
Reply #4
  • Devoted Member
  • **
  • Thank You: 0
  • Reputation: 1
  • Activity:
    7.4%
  • Country: in
  • Posts: 182
  • Topics: 0
  • Join Date: Dec 2015
  • ShareSpark Member
 :hello: :download: :notworking: :please: :help:

Please update the links bcs files are expired or removed

Tags: !!!dip 
 

Related Topics





Back to top