+ ShareSpark.net »  :::: Dubbed Zone (Dubbed English in Hindi) » English Movies Dubbed in Hindi » High Resolution Movies
|- Harry Potter and the Sorcerers Stone (2001) 1080p BluRay x264 [Eng 5.1 + Hindi 2.0] - TBI

10% Off Cashback Carnival

Harry Potter and the Sorcerers Stone (2001) 1080p BluRay x264 [Eng 5.1 + Hindi 2.0] - TBI

0 Members and 1 Guest are viewing this topic.

October 03, 2015, 04:56:29 PM
  • Admin
  • Legend Member
  • ****
  • Topic Author
  • Thank You: 4172
  • Reputation: 2276
  • Activity:
    0%
  • Country: in
  • Posts: 4776
  • Topics: 2539
  • Join Date: May 2013
  • ShareSpark Member

Harry Potter and the Sorcerers Stone (2001) + 1080p BluRay x264 Dual Audio [English 5.1 + Hindi 2.0] - TBI





Release Info:

Release Name: Harry Potter and the Sorcerer's Stone (2001)
Size: 2.84 GiB
Video: AVC | 1920 x 800 | 2000 Kbps | 23.976 FPS | 2.40:1
Audio 1: English | 448 Kbps | 6ch | AC3
Audio 2: Hindi | 224 Kbps | 2ch | AC3
Runtime: 02h 32mn 21secs
Subtitle: None
Source: TC.BluRay-OT

IMDB Info:

Name: Harry Potter and the Sorcerer's Stone (2001)
Genre: Adventure | Family | Fantasyr
IMDB Link:

Director: Chris Columbus
Writers: J.K. Rowling (novel), Steve Kloves (screenplay)
Cast: Daniel Radcliffe, Rupert Grint, Richard
Plot: Rescued from the outrageous neglect of his aunt and uncle,
a young boy with a great destiny proves his worth while attending
Hogwarts School of Witchcraft and Wizardry.

Extras:

Creating the World of Harry Potter Part - 1 (01:02:47)
Additional Footage (09:35)
A Glimpse Into the World of Harry Potter (09:15)
Introduction by Daniel Radcliffe (01:15)



Extras Info:

Size: 594 MiB
Video: AVC | 1280 x 720 | 800 Kbps | 23.976 + 29.970 FPS | 16:9
Audio: English | 192 Kbps | 2ch | AC3
Runtime: 1h 22mn 52sec
Subtitles: None

Mediainfo
General
General
Complete name : Harry Potter and the Sorcerer's Stone (2001).mp4
Format : MPEG-4
Format profile : Base Media
Codec ID : isom
File size : 2.85 GiB
Duration : 2h 32mn
Overall bit rate : 2 674 Kbps
Encoded date : UTC 2015-10-02 09:23:14
Tagged date : UTC 2015-10-02 09:23:14

Video
ID : 1
Format : AVC
Format/Info : Advanced Video Codec
Format profile : [email protected]
Format settings, CABAC : Yes
Format settings, ReFrames : 4 frames
Codec ID : avc1
Codec ID/Info : Advanced Video Coding
Duration : 2h 32mn
Bit rate : 2 000 Kbps
Maximum bit rate : 9 719 Kbps
Width : 1 920 pixels
Height : 800 pixels
Display aspect ratio : 2.40:1
Frame rate mode : Constant
Frame rate : 23.976 fps
Color space : YUV
Chroma subsampling : 4:2:0
Bit depth : 8 bits
Scan type : Progressive
Bits/(Pixel*Frame) : 0.054
Stream size : 2.13 GiB (75%)
Writing library : x264 core 142 r2479 dd79a61
Color primaries : BT.709
Transfer characteristics : BT.709
Matrix coefficients : BT.709

Audio #1
ID : 2
Format : AC-3
Format/Info : Audio Coding 3
Mode extension : CM (complete main)
Format settings, Endianness : Big
Codec ID : ac-3
Duration : 2h 32mn
Bit rate mode : Constant
Bit rate : 448 Kbps
Channel count : 6 channels
Channel positions : Front: L C R, Side: L R, LFE
Sampling rate : 48.0 KHz
Bit depth : 16 bits
Compression mode : Lossy
Stream size : 488 MiB (17%)
Language : English

Audio #2
ID : 3
Format : AC-3
Format/Info : Audio Coding 3
Mode extension : CM (complete main)
Format settings, Endianness : Big
Codec ID : ac-3
Duration : 2h 32mn
Bit rate mode : Constant
Bit rate : 224 Kbps
Channel count : 2 channels
Channel positions : Front: L R
Sampling rate : 48.0 KHz
Bit depth : 16 bits
Compression mode : Lossy
Stream size : 244 MiB (8%)
Language : Hindi







:download:
Full Movie







DON'T FORGET TO HIT THANX AND +REPUTE, IF.. YOU LIKE MY POST

Share this topic on FacebookShare this topic on GoogleShare this topic on MySpaceShare this topic on TwitterShare this topic on Yahoo

« Last Edit: November 21, 2017, 01:58:20 PM by -Ð@Rk.ÐèVi£- »


Thanks given by:


November 21, 2017, 01:58:39 PM
Reply #1
  • *****************
  • Head Admin
  • Legend Member
  • *****
  • Thank You: 6324
  • Reputation: 2786
  • Activity:
    100%
  • Country: in
  • Posts: 18373
  • Topics: 10820
  • Join Date: Mar 2012
  • The Time Is Now......

Tags:
 

Related Topics




Back to top