+ ShareSpark.net
|- Recent Posts


Recent Posts

Pages: 1 2 3 4 ... 10
2


Jumanji Welcome to the Jungle (2017) BluRay x265 HEVC Dual Audio [Hindi DD5.1-EnglishD5.1] - Esub _ Ranvijay



Buy RDP Online


Quote
Format                                   : Matroska
Format version                           : Version 4 / Version 2
File size                                : 1.06 GiB
Duration                                 : 1 h 59 min
Overall bit rate                         : 1 270 kb/s
Movie name                               : Jumanji Welcome to the Jungle (2017) 720p BRRip Dual Audio [Hindi DD5.1-EnglishD5.1] - Esub ~ Ranvijay

Video
Duration                                 : 1 h 59 min
Bit rate                                 : 820 kb/s
Width                                    : 1 280 pixels
Height                                   : 536 pixels
Stream size                              : 698 MiB (65%)
Title                                    : ~Ranvijay~
Default                                  : Yes
Forced                                   : No

Audio #1
ID                                       : 2
Format                                   : AAC
Format/Info                              : Advanced Audio Codec
Format profile                           : HE-AAC / LC
Format settings                          : Explicit
Codec ID                                 : A_AAC-2
Duration                                 : 1 h 59 min
Bit rate                                 : 64.0 kb/s
Channel(s)                               : 2 channels
Channel positions                        : Front: L R
Sampling rate                            : 48.0 kHz / 24.0 kHz
Frame rate                               : 23.438 FPS (1024 SPF)
Compression mode                         : Lossy
Delay relative to video                  : 31 ms
Stream size                              : 54.5 MiB (5%)
Title                                    : ~Ranvijay~
Language                                 : English
Default                                  : No
Forced                                   : No

Audio #2
ID                                       : 4
Format                                   : AC-3
Format/Info                              : Audio Coding 3
Codec ID                                 : A_AC3
Duration                                 : 1 h 59 min
Bit rate mode                            : Constant
Bit rate                                 : 384 kb/s
Channel(s)                               : 6 channels
Channel positions                        : Front: L C R, Side: L R, LFE
Sampling rate                            : 48.0 kHz
Frame rate                               : 31.250 FPS (1536 SPF)
Bit depth                                : 16 bits
Compression mode                         : Lossy
Stream size                              : 327 MiB (30%)
Title                                    : ~Ranvijay~
Language                                 : Hindi
Service kind                             : Complete Main
Default                                  : Yes
Forced                                   : No

Text
ID                                       : 1
Format                                   : UTF-8
Codec ID                                 : S_TEXT/UTF8
Codec ID/Info                            : UTF-8 Plain Text
Duration                                 : 1 h 48 min
Bit rate                                 : 64 b/s
Count of elements                        : 1533
Stream size                              : 51.4 KiB (0%)
Title                                    : ~Ranvijay~
Language                                 : English
Default                                  : Yes
Forced                                   : No

Menu
00:00:00.000                             : :00:00:00.000
00:07:18.104                             : :00:07:18.104
00:17:15.993                             : :00:17:15.993
00:23:23.235                             : :00:23:23.235
00:29:25.138                             : :00:29:24.972
00:42:28.546                             : :00:42:28.546
00:47:11.162                             : :00:47:11.162
00:54:26.722                             : :00:54:26.722
01:03:20.839                             : :01:03:20.839
01:10:21.801                             : :01:10:21.801
01:15:51.672                             : :01:15:51.672
01:24:10.087                             : :01:24:10.087
01:28:20.295                             : :01:28:20.295
01:33:48.414                             : :01:33:48.414
01:42:22.887                             : :01:42:22.887
01:48:32.006                             : :01:48:31.839










:download:

Quote

File Leeched & Uploaded From




Don't walk as you are king, walk as you don't care who the king is....!!
Never argue with an idiot. They drag you down to their level and then beat you with experience?
3


Jumanji Welcome to the Jungle (2017) 720p BluRay x264 Dual Audio [Hindi DD5.1(RM) - English DD2.0] - Esub ~ Ranvijay



Buy RDP Online




Quote
Format                                   : Matroska
Format version                           : Version 4 / Version 2
File size                                : 1.53 GiB
Duration                                 : 1 h 59 min
Overall bit rate                         : 1 838 kb/s
Movie name                               : Jumanji Welcome to the Jungle (2017) 720p BluRay x264 Dual Audio [Hindi DD5.1(RM) - English DD2.0] - Esub ~ Ranvijay

Video
Duration                                 : 1 h 59 min
Bit rate                                 : 1 289 kb/s
Width                                    : 1 280 pixels
Height                                   : 536 pixels
Display aspect ratio                     : 2.40:1
Frame rate mode                          : Constant
Frame rate                               : 23.976 (24000/1001) FPS
Stream size                              : 1.07 GiB (70%)
Title                                    : ~Ranvijay~
Default                                  : Yes
Forced                                   : No

Audio #1
Format                                   : AAC
Duration                                 : 1 h 59 min
Bit rate                                 : 100.0 kb/s
Channel(s)                               : 2 channels
Channel positions                        : Front: L R
Sampling rate                            : 48.0 kHz / 24.0 kHz
Frame rate                               : 23.438 FPS (1024 SPF)
Compression mode                         : Lossy
Delay relative to video                  : 31 ms
Stream size                              : 85.2 MiB (5%)
Title                                    : ~Ranvijay~
Language                                 : English
Default                                  : No
Forced                                   : No

Audio #2
Format                                   : AC-3
Format/Info                              : Audio Coding 3
Codec ID                                 : A_AC3
Duration                                 : 1 h 59 min
Bit rate mode                            : Constant
Bit rate                                 : 448 kb/s
Channel(s)                               : 6 channels
Channel positions                        : Front: L C R, Side: L R, LFE
Sampling rate                            : 48.0 kHz
Frame rate                               : 31.250 FPS (1536 SPF)
Bit depth                                : 16 bits
Compression mode                         : Lossy
Stream size                              : 381 MiB (24%)
Title                                    : ~Ranvijay~
Language                                 : Hindi
Service kind                             : Complete Main
Default                                  : Yes
Forced                                   : No

Text
ID                                       : 3
Format                                   : UTF-8
Codec ID                                 : S_TEXT/UTF8
Codec ID/Info                            : UTF-8 Plain Text
Duration                                 : 1 h 48 min
Bit rate                                 : 64 b/s
Count of elements                        : 1533
Stream size                              : 51.4 KiB (0%)
Title                                    : ~Ranvijay~
Language                                 : English
Default                                  : Yes
Forced                                   : No













:download:

Quote













File Leeched & Uploaded From




Don't walk as you are king, walk as you don't care who the king is....!!
Never argue with an idiot. They drag you down to their level and then beat you with experience?
4


Jumanji Welcome to the Jungle (2017) 1080p BluRay x264 Dual Audio [Hindi DD5.1(RM) - English DD5.1] - Esub ~ Ranvijay



Buy RDP Online




Quote
Format                                   : Matroska
Format version                           : Version 4 / Version 2
File size                                : 4.75 GiB
Duration                                 : 1 h 59 min
Overall bit rate                         : 5 716 kb/s
Movie name                               : Jumanji: Welcome to the Jungle (2017) 1080p BluRay x264 Dual Audio [Hindi DD5.1(RM) - English DD5.1] - Esub ~ Ranvijay

Video
Duration                                 : 1 h 59 min
Bit rate                                 : 4 802 kb/s
Width                                    : 1 920 pixels
Height                                   : 800 pixels
Display aspect ratio                     : 2.40:1
Frame rate mode                          : Constant
Frame rate                               : 23.976 (24000/1001) FPS
Stream size                              : 3.99 GiB (84%)
Title                                    : ~Ranvijay~
Language                                 : English
Default                                  : Yes
Forced                                   : No

Audio #1
ID                                       : 2
Format                                   : AC-3
Format/Info                              : Audio Coding 3
Codec ID                                 : A_AC3
Duration                                 : 1 h 59 min
Bit rate mode                            : Constant
Bit rate                                 : 448 kb/s
Channel(s)                               : 6 channels
Channel positions                        : Front: L C R, Side: L R, LFE
Sampling rate                            : 48.0 kHz
Frame rate                               : 31.250 FPS (1536 SPF)
Bit depth                                : 16 bits
Compression mode                         : Lossy
Stream size                              : 381 MiB (8%)
Title                                    : ~Ranvijay~
Language                                 : Hindi
Service kind                             : Complete Main
Default                                  : Yes
Forced                                   : No

Audio #2
ID                                       : 3
Format                                   : AC-3
Format/Info                              : Audio Coding 3
Codec ID                                 : A_AC3
Duration                                 : 1 h 59 min
Bit rate mode                            : Constant
Bit rate                                 : 448 kb/s
Channel(s)                               : 6 channels
Channel positions                        : Front: L C R, Side: L R, LFE
Sampling rate                            : 48.0 kHz
Frame rate                               : 31.250 FPS (1536 SPF)
Bit depth                                : 16 bits
Compression mode                         : Lossy
Stream size                              : 381 MiB (8%)
Title                                    : ~Ranvijay~
Language                                 : English
Service kind                             : Complete Main
Default                                  : No
Forced                                   : No

Text #1
ID                                       : 4
Format                                   : UTF-8
Codec ID                                 : S_TEXT/UTF8
Codec ID/Info                            : UTF-8 Plain Text
Duration                                 : 1 h 48 min
Bit rate                                 : 65 b/s
Count of elements                        : 1803
Stream size                              : 52.4 KiB (0%)
Title                                    : Full
Language                                 : English
Default                                  : No
Forced                                   : No

Text #2
ID                                       : 5
Format                                   : UTF-8
Codec ID                                 : S_TEXT/UTF8
Codec ID/Info                            : UTF-8 Plain Text
Duration                                 : 1 h 49 min
Bit rate                                 : 72 b/s
Count of elements                        : 2103
Stream size                              : 58.0 KiB (0%)
Title                                    : SDH
Language                                 : English
Default                                  : No
Forced                                   : No

Text #3
ID                                       : 6
Format                                   : UTF-8
Codec ID                                 : S_TEXT/UTF8
Codec ID/Info                            : UTF-8 Plain Text
Duration                                 : 1 h 49 min
Bit rate                                 : 122 b/s
Count of elements                        : 2103
Stream size                              : 98.9 KiB (0%)
Title                                    : SDH-Colored
Language                                 : English
Default                                  : No
Forced                                   : No

Text #4
ID                                       : 7
Format                                   : PGS
Muxing mode                              : zlib
Codec ID                                 : S_HDMV/PGS
Codec ID/Info                            : Picture based subtitle format used on BDs/HD-DVDs
Duration                                 : 1 h 48 min
Bit rate                                 : 54.8 kb/s
Count of elements                        : 3832
Stream size                              : 42.7 MiB (1%)
Title                                    : ~Ranvijay~
Language                                 : English
Default                                  : Yes
Forced                                   : No

Menu
00:00:00.000                             : en:00:00:00.000
00:07:18.104                             : en:00:07:18.104
00:17:15.993                             : en:00:17:15.993
00:23:23.235                             : en:00:23:23.235
00:29:24.972                             : en:00:29:24.972
00:42:28.546                             : en:00:42:28.546
00:47:11.162                             : en:00:47:11.162
00:54:26.722                             : en:00:54:26.722
01:03:20.839                             : en:01:03:20.839
01:10:21.801                             : en:01:10:21.801
01:15:51.672                             : en:01:15:51.672
01:24:10.087                             : en:01:24:10.087
01:28:20.295                             : en:01:28:20.295
01:33:48.414                             : en:01:33:48.414
01:42:22.887                             : en:01:42:22.887
01:48:31.839                             : en:01:48:31.839














:download:

Quote






File Leeched & Uploaded From




Don't walk as you are king, walk as you don't care who the king is....!!
Never argue with an idiot. They drag you down to their level and then beat you with experience?
6
Shutter.Island.2010.Bluray.1080p.DTS-HD.x264-Grym - 18 GB (Rainbow)



Quote
iMDB URL..........: 

SOURCE TYPE.......:  Retail Blu-Ray 37,7 GB Movie @ 27628 kbps / 44,0 GB Full
ViDEO SPECS.......:  x264 2PASS @ 14000+ Kbps ([email protected]) - 23.976 fps
AUDiO SPECS.......:  English DTS-HD Master 5.1 4725 kbps 24 bit (Core: 1509 kbps)
RUNTiME...........:  2h 18 min
FiLM ASPECT RATiO.:  2.35:1 Anamorphic Widescreen / Scope (Lens)
RESOLUTiON........:  1920 X 1080p
SUBTiTLES.........:  English, French, Russian

DOWNLOAD

Quote

Credits to vonRicht

7
Kill the Messenger (2014) [Dual Audio] [Hindi-English] BluRay Rip











Code: [Select]
https://www.imdb.com/title/tt1216491/



Code: [Select]
credit to ripper



Code: [Select]
https://www.file-upload.com/mxj1xzxslvkp

9
Baaghi 2 (2018) Hindi HDRip











Code: [Select]
credit to ripper



Code: [Select]
https://www.file-upload.com/jyxasswbut9u

10
Hum Dil De Chuke Sanam 1999 Hindi 720p HDRip x264 AC3 5.1 - Hon3y



 :info:
Format : Matroska
Format version : Version 4 / Version 2
File size : 4.37 GiB
Duration : 3 h 8 min
Overall bit rate : 3 323 kb/s

Video
ID : 1
Format : AVC
Format/Info : Advanced Video Codec
Format profile : [email protected]
Format settings, CABAC : Yes
Format settings, ReFrames : 8 frames
Codec ID : V_MPEG4/ISO/AVC
Duration : 3 h 8 min
Bit rate : 2 874 kb/s
Width : 1 280 pixels
Height : 544 pixels
Display aspect ratio : 2.35:1
Frame rate mode : Constant
Frame rate : 24.000 FPS

Audio
ID : 2
Format : AC-3
Format/Info : Audio Coding 3
Format settings, Endianness : Big
Codec ID : A_AC3
Duration : 3 h 8 min
Bit rate mode : Constant
Bit rate : 448 kb/s
Channel(s) : 6 channels
Channel positions : Front: L C R, Side: L R, LFE
Sampling rate : 48.0 kHz


 :ss:




 :download:






Pages: 1 2 3 4 ... 10


Back to top