+ ShareSpark.net
|- Recent Posts


New Promotions of ShareSpark Member's (January 2018) New
Tag users in topic | Receive notifications when you are tagged

Recent Posts

Pages: 1 2 3 4 ... 10
1

Australia Day 2017 720p BRRip x264 AAC Hon3y



 :info:

Source: PFa
Format : Matroska
Format version : Version 4 / Version 2
File size : 976 MiB
Duration : 1 h 37 min
Overall bit rate : 1 393 kb/s
Movie name : Australia Day 2017 - Hon3y


Video
ID : 1
Format : AVC
Format/Info : Advanced Video Codec
Format profile : [email protected]
Format settings, CABAC : Yes
Format settings, RefFrames : 8 frames
Codec ID : V_MPEG4/ISO/AVC
Duration : 1 h 37 min
Bit rate : 1 200 kb/s
Width : 1 280 pixels
Height : 536 pixels
Display aspect ratio : 2.40:1
Frame rate mode : Constant
Frame rate : 24.000 FPS
Language : English
Default : Yes
Forced : No
Color range : Limited
Color primaries : BT.709
Transfer characteristics : BT.709
Matrix coefficients : BT.709

Audio
ID : 2
Format : AAC
Format/Info : Advanced Audio Codec
Format profile : LC
Codec ID : A_AAC
Duration : 1 h 37 min
Bit rate : 192 kb/s
Channel(s) : 6 channels
Channel positions : Front: L C R, Side: L R, LFE
Sampling rate : 48.0 kHz
Frame rate : 46.875 FPS (1024 SPF)
Compression mode : Lossy
Delay relative to video : 9 ms
Stream size : 134 MiB (14%)
Language : English
Default : Yes
Forced : No


 :ss:








 :download:
















2

Small Town Crime 2017 720p WEB-DL x264 AAC Hon3y



 :info:

Source:FGT
Format : Matroska
Format version : Version 4 / Version 2
File size : 876 MiB
Duration : 1 h 32 min
Overall bit rate : 1 330 kb/s
Movie name : Small.Town.Crime.2017 - Hon3y


Video
ID : 1
Format : AVC
Format/Info : Advanced Video Codec
Format profile : [email protected]
Format settings, CABAC : Yes
Format settings, RefFrames : 8 frames
Codec ID : V_MPEG4/ISO/AVC
Duration : 1 h 32 min
Bit rate : 1 200 kb/s
Width : 1 280 pixels
Height : 528 pixels
Display aspect ratio : 2.40:1
Frame rate mode : Constant
Frame rate : 23.976 (24000/1001) FPS
Language : English
Default : Yes
Forced : No
Color range : Limited
Color primaries : BT.709
Transfer characteristics : BT.709
Matrix coefficients : BT.709

Audio
ID : 2
Format : AAC
Format/Info : Advanced Audio Codec
Format profile : LC
Codec ID : A_AAC
Duration : 1 h 32 min
Bit rate : 128 kb/s
Channel(s) : 2 channels
Channel positions : Front: L R
Sampling rate : 48.0 kHz
Frame rate : 46.875 FPS (1024 SPF)
Compression mode : Lossy
Delay relative to video : 9 ms
Stream size : 84.3 MiB (10%)
Language : English
Default : Yes
Forced : No


 :ss:










 :download:
















3

Coffin 2 2017 720p WEB-DL x264 AAC Hon3y



 :info:


Source:FGT
Format : Matroska
Format version : Version 4 / Version 2
File size : 966 MiB
Duration : 1 h 41 min
Overall bit rate : 1 330 kb/s
Movie name : Coffin.2.2017 - Hon3y


Video
ID : 1
Format : AVC
Format/Info : Advanced Video Codec
Format profile : [email protected]
Format settings : CABAC / 8 Ref Frames
Format settings, CABAC : Yes
Format settings, RefFrames : 8 frames
Codec ID : V_MPEG4/ISO/AVC
Duration : 1 h 41 min
Bit rate : 1 200 kb/s
Width : 1 280 pixels
Height : 720 pixels
Display aspect ratio : 16:9
Frame rate mode : Constant
Frame rate : 23.976 (24000/1001) FPS
Language : English
Default : Yes
Forced : No
Color range : Limited
Color primaries : BT.709
Transfer characteristics : BT.709
Matrix coefficients : BT.709a

Audio
ID : 2
Format : AAC
Format/Info : Advanced Audio Codec
Format profile : LC
Codec ID : A_AAC-2
Duration : 1 h 41 min
Bit rate : 128 kb/s
Channel(s) : 2 channels
Channel positions : Front: L R
Sampling rate : 48.0 kHz
Frame rate : 46.875 FPS (1024 SPF)
Compression mode : Lossy
Delay relative to video : 9 ms
Stream size : 93.0 MiB (10%)
Language : English
Default : Yes
Forced : No


 :ss:










 :download:
















4
Delirium 2018 720p WEB-DL x264 AAC Hon3y



 :info:

Source:FGT
Format : Matroska
Format version : Version 4 / Version 2
File size : 801 MiB
Duration : 1 h 24 min
Overall bit rate : 1 330 kb/s
Movie name : Delirium.2018 - Hon3y

Video
ID : 1
Format : AVC
Format/Info : Advanced Video Codec
Format profile : [email protected]
Format settings : CABAC / 8 Ref Frames
Format settings, CABAC : Yes
Format settings, RefFrames : 8 frames
Codec ID : V_MPEG4/ISO/AVC
Duration : 1 h 24 min
Bit rate : 1 200 kb/s
Width : 1 280 pixels
Height : 712 pixels
Display aspect ratio : 16:9
Frame rate mode : Constant
Frame rate : 23.976 (24000/1001) FPS
Language : English
Default : Yes
Forced : No
Color range : Limited
Color primaries : BT.709
Transfer characteristics : BT.709
Matrix coefficients : BT.709

Audio
ID : 2
Format : AAC
Format/Info : Advanced Audio Codec
Format profile : LC
Codec ID : A_AAC-2
Duration : 1 h 24 min
Bit rate : 128 kb/s
Channel(s) : 2 channels
Channel positions : Front: L R
Sampling rate : 48.0 kHz
Frame rate : 46.875 FPS (1024 SPF)
Compression mode : Lossy
Delay relative to video : 9 ms
Stream size : 77.1 MiB (10%)
Language : English
Default : Yes
Forced : No


 :ss:










 :download:















5


Rise Of The Footsoldier 3 2017 720p BRRip x264 AAC Hon3y











 :info:

Source:CADAVER
Format : Matroska
Format version : Version 4 / Version 2
File size : 947 MiB
Duration : 1 h 39 min
Overall bit rate : 1 331 kb/s
Movie name : Rise.Of.The.Footsoldier.3.2017 - Hon3y


Video
ID : 1
Format : AVC
Format/Info : Advanced Video Codec
Format profile : [email protected]
Format settings, CABAC : Yes
Format settings, RefFrames : 8 frames
Codec ID : V_MPEG4/ISO/AVC
Duration : 1 h 39 min
Bit rate : 1 200 kb/s
Width : 1 280 pixels
Height : 536 pixels
Display aspect ratio : 2.40:1
Frame rate mode : Constant
Frame rate : 24.000 FPS
Default : Yes
Forced : No
Color range : Limited
Color primaries : BT.709
Transfer characteristics : BT.709
Matrix coefficients : BT.709

Audio
ID : 2
Format : AAC
Format/Info : Advanced Audio Codec
Format profile : LC
Codec ID : A_AAC
Duration : 1 h 39 min
Bit rate : 128 kb/s
Channel(s) : 2 channels
Channel positions : Front: L R
Sampling rate : 48.0 kHz
Frame rate : 46.875 FPS (1024 SPF)
Compression mode : Lossy
Delay relative to video : -21 ms
Stream size : 91.3 MiB (10%)
Title : Stereo
Language : English
Default : Yes
Forced : No

Text
ID : 3
Format : UTF-8
Codec ID : S_TEXT/UTF8
Codec ID/Info : UTF-8 Plain Text
Duration : 1 h 34 min
Bit rate : 75 b/s
Count of elements : 1423
Stream size : 52.1 KiB (0%)
Language : English
Default : Yes
Forced : No


 :ss:












 :download:















6

Nirdosh (2018) Untouched NTSC Pre DvD DTOne Exclusive












 :download:

Note : .VOB Format




















7
Not working, but he is earning money by adding links. Nice job bro. Total Fake. I have seen his ID at multiple other sides.. Nice job  :claps:
9
File Has been removed....
Plz upload Once again,add bdupload link.......
10
Blade.of.the.Immortal.2017.JAPANESE.1080p.BRRip.x264.AAC.5.1.Esub.Hon3y By JacKRoSe {3.3GB}





Quote
Format : Matroska
Format version : Version 4 / Version 2
File size : 3.27 GiB
Duration : 2 h 20 min
Overall bit rate : 3 321 kb/s
Movie name : Blade.of.the.Immortal.2017.JAPANESE

Video
ID : 1
Format : AVC
Format/Info : Advanced Video Codec
Format profile : [email protected]
Format settings, CABAC : Yes
Format settings, RefFrames : 5 frames
Codec ID : V_MPEG4/ISO/AVC
Duration : 2 h 20 min
Bit rate : 3 000 kb/s
Width : 1 920 pixels
Height : 804 pixels
Display aspect ratio : 2.40:1
Frame rate mode : Constant
Frame rate : 23.976 (24000/1001) FPS

Audio
ID : 2
Format : AAC
Format/Info : Advanced Audio Codec
Format profile : LC
Codec ID : A_AAC
Duration : 2 h 20 min
Bit rate : 320 kb/s
Channel(s) : 6 channels
Channel positions : Front: L C R, Side: L R, LFE
Sampling rate : 48.0 kHz
Language : Japanese


Text
ID : 3
Format : ASS
Codec ID : S_TEXT/ASS
Codec ID/Info : Advanced Sub Station Alpha
Duration : 2 h 16 min
Bit rate : 46 b/s
Count of elements : 976
Compression mode : Lossless
Stream size : 46.3 KiB (0%)
Language : English
Default : No
Forced : No

Menu
00:00:00.000 : :Chapter 1
00:11:51.169 : :Chapter 2
00:25:10.676 : :Chapter 3
00:42:28.254 : :Chapter 4
00:52:53.420 : :Chapter 5
01:01:27.684 : :Chapter 6
01:16:27.583 : :Chapter 7
01:28:38.855 : :Chapter 8
01:36:22.110 : :Chapter 9
01:45:16.519 : :Chapter 10
02:01:52.013 : :Chapter 11
02:16:54.081 : :Chapter 12




Download links



OR






Pages: 1 2 3 4 ... 10



Back to top