+ ShareSpark.net »  :::: Bollywood Zone » Bollywood Movies (Original Rips) » High Resolution Movies
|- Sarbjit (2016) HQ 1080p Blu-ray x264 DTS-HDMA 7.1 ESub -DDR


Sarbjit (2016) HQ 1080p Blu-ray x264 DTS-HDMA 7.1 ESub -DDR

0 Members and 1 Guest are viewing this topic.

August 12, 2016, 11:13:19 AM
  • *****************
  • Head Admin
  • Legend Member
  • *****
  • Topic Author
  • Thank You: 5306
  • Reputation: 2434
  • Activity:
    92.4%
  • Country: in
  • Posts: 16991
  • Topics: 10282
  • Join Date: Mar 2012
  • The Time Is Now......


Source : DDR Blu-ray BD50
Format : Matroska
File size : 16.2 GiB
Duration : 2h 11mn
Overall bit rate : 17.6 Mbps

Video
Format : AVC
Format/Info : Advanced Video Codec
Format profile : [email protected]
Format settings, CABAC : Yes
Format settings, ReFrames : 5 frames
Codec ID : V_MPEG4/ISO/AVC
Duration : 2h 11mn
Bit rate : 12.4 Mbps
Width : 1 920 pixels
Height : 800 pixels
Display aspect ratio : 2.40:1
Frame rate mode : Constant
Frame rate : 24.000 fps
Color space : YUV
Chroma subsampling : 4:2:0
Bit depth : 8 bits
Scan type : Progressive
Bits/(Pixel*Frame) : 0.336
Stream size : 11.4 GiB (70%)
Default : Yes
Forced : No
Color range : Limited
Color primaries : BT.709

Audio
Format : DTS
Format/Info : Digital Theater Systems
Format profile : MA / Core
Mode : 16
Format settings, Endianness : Big
Codec ID : A_DTS
Duration : 2h 11mn
Bit rate mode : Variable / Constant
Bit rate : 5 221 Kbps / 1 509 Kbps
Channel(s) : 8 channels / 6 channels
Channel positions : Front: L C R, Side: L R, Back: L R, LFE / Front: L C R, Side: L R, LFE
Sampling rate : 48.0 KHz
Frame rate : 93.750 fps (512 spf)
Bit depth : 24 bits
Compression mode : Lossless / Lossy
Stream size : 4.81 GiB (30%)
Language : Hindi
Default : Yes
Forced : No


Text
Format : VobSub
Muxing mode : zlib
Codec ID : S_VOBSUB
Codec ID/Info : Picture based subtitle format used on DVDs
Duration : 2h 4mn
Bit rate : 2 798 bps
Count of elements : 1579
Stream size : 2.49 MiB (0%)
Language : English
Default : Yes
Forced : No

Chapters = YES













Share this topic on FacebookShare this topic on GoogleShare this topic on MySpaceShare this topic on TwitterShare this topic on Yahoo




November 07, 2017, 08:02:28 PM
Reply #1
  • Devoted Member
  • **
  • Thank You: 0
  • Reputation: 0
  • Activity:
    1.6%
  • Country: in
  • Posts: 159
  • Topics: 0
  • Join Date: Oct 2014
  • ShareSpark Member
sir can you please update the link

 :thank: :rep:  :bravo:

Tags:
 

Related Topics





Back to top