+ ShareSpark.net »  :::: Dubbed Zone (Dubbed English in Hindi) » TV Shows (Dubbed in Hindi)
|- House of Cards (2013) Season 1 - Complete 720p Bluray Dual Audio [Hindi 2.0 + Eng 5.0] ~ Ranvijay


House of Cards (2013) Season 1 - Complete 720p Bluray Dual Audio [Hindi 2.0 + Eng 5.0] ~ Ranvijay

0 Members and 1 Guest are viewing this topic.

October 26, 2017, 03:02:48 PM
  • Elite Moderator
  • Legend Member
  • ****
  • Topic Author
  • Thank You: 3550
  • Reputation: 674
  • Activity:
    100%
  • Country: in
  • Posts: 3176
  • Topics: 2666
  • Join Date: Jan 2014
  • ıllıllı ѕмoĸιng ιѕ good ғor нealтн ıllıllı :)


House of Cards (2013) Season 1 - Complete 720p Bluray Dual Audio [Hindi 2.0 + Eng 5.0] ~ Ranvijay

:info:

Quote
Format                                   : Matroska
Format version                           : Version 4 / Version 2
File size                                : 586 MiB
Duration                                 : 56 min 33 s
Overall bit rate                         : 1 449 kb/s

Video
ID                                       : 1
Format                                   : AVC
Format/Info                              : Advanced Video Codec
Format profile                           : High [email protected]
Format settings                          : CABAC / 9 Ref Frames
Format settings, CABAC                   : Yes
Format settings, RefFrames               : 9 frames
Codec ID                                 : V_MPEG4/ISO/AVC
Duration                                 : 55 min 57 s
Bit rate                                 : 1 010 kb/s
Width                                    : 1 280 pixels
Height                                   : 720 pixels
Display aspect ratio                     : 2.000
Frame rate mode                          : Constant
Frame rate                               : 23.976 (24000/1001) FPS
Original frame rate                      : 23.976 (23976/1000) FPS
Color space                              : YUV
Chroma subsampling                       : 4:2:0
Bit depth                                : 10 bits
Scan type                                : Progressive
Bits/(Pixel*Frame)                       : 0.046
Stream size                              : 406 MiB (69%)
Default                                  : Yes
Forced                                   : No

Audio #1
ID                                       : 2
Format                                   : AC-3
Format/Info                              : Audio Coding 3
Format settings, Endianness              : Big
Codec ID                                 : A_AC3
Duration                                 : 55 min 57 s
Bit rate mode                            : Constant
Bit rate                                 : 384 kb/s
Channel(s)                               : 6 channels
Channel positions                        : Front: L C R, Side: L R, LFE
Sampling rate                            : 48.0 kHz
Frame rate                               : 31.250 FPS (1536 SPF)
Bit depth                                : 16 bits
Compression mode                         : Lossy
Stream size                              : 154 MiB (26%)
Service kind                             : Complete Main
Default                                  : No
Forced                                   : No

Audio #2
ID                                       : 3
Format                                   : AAC
Format/Info                              : Advanced Audio Codec
Format profile                           : HE-AAC / LC
Format settings                          : Implicit
Codec ID                                 : A_AAC-2
Duration                                 : 56 min 33 s
Bit rate                                 : 64.0 kb/s
Channel(s)                               : 2 channels
Channel positions                        : Front: L R
Sampling rate                            : 48.0 kHz / 24.0 kHz
Frame rate                               : 23.438 FPS (1024 SPF)
Compression mode                         : Lossy
Delay relative to video                  : 15 ms
Stream size                              : 25.9 MiB (4%)
Title                                    : Sharespark.net
Default                                  : Yes
Forced                                   : No

[size=30]::::SCREENSHOTS::::[/size]
























:download:

Quote









































































































































































Need Google Drive Link. PM Me Your Gmail Account With Password. Will Be Upload There :)
File Leeched & Uploaded From





Don't walk as you are king, walk as you don't care who the king is....!!
Never argue with an idiot. They drag you down to their level and then beat you with experience?

Share this topic on FacebookShare this topic on GoogleShare this topic on MySpaceShare this topic on TwitterShare this topic on Yahoo

« Last Edit: October 26, 2017, 03:03:34 PM by Rάήνίјάч1234 »



Don't walk as you are king, walk as you don't care who the king is....!!

Thanks given by:


October 27, 2017, 11:00:44 AM
Reply #1
  • Semi Newbie
  • **
  • Thank You: 0
  • Reputation: 0
  • Activity:
    3.4%
  • Country: bd
  • Posts: 17
  • Topics: 0
  • Join Date: Aug 2017
  • ShareSpark Member

October 27, 2017, 06:48:46 PM
Reply #2
  • Addic7ed
  • Legend Member
  • ****
  • Thank You: 1705
  • Reputation: 230
  • Activity:
    100%
  • Country: in
  • Posts: 3092
  • Topics: 2298
  • Join Date: Sep 2016
  • (: EnJOy D LiFe :)

October 29, 2017, 03:39:19 AM
Reply #3
  • Semi Newbie
  • **
  • Thank You: 0
  • Reputation: 0
  • Activity:
    1.6%
  • Country: pk
  • Posts: 8
  • Topics: 0
  • Join Date: Aug 2017
  • ShareSpark Member

November 14, 2017, 07:38:35 PM
Reply #4
  • Semi Newbie
  • **
  • Thank You: 0
  • Reputation: -2
  • Activity:
    3.4%
  • Country: in
  • Posts: 36
  • Topics: 0
  • Join Date: Jun 2016
  • ShareSpark Member

November 15, 2017, 10:32:13 PM
Reply #5
  • Newbie
  • **
  • Thank You: 0
  • Reputation: 0
  • Activity:
    0.4%
  • Country: pk
  • Posts: 2
  • Topics: 0
  • Join Date: Nov 2017
  • ShareSpark Member

Tags:
 

Related Topics





Back to top