+ ShareSpark.net »  :::: Bollywood Zone » Bollywood Movies (Original Rips)
|- Toilet Ek Prem Katha 2017 Hindi 720p BluRay x264 AC3 5.1 ESub-Hon3y - 3.0 GB [With Google Drive]


Toilet Ek Prem Katha 2017 Hindi 720p BluRay x264 AC3 5.1 ESub-Hon3y - 3.0 GB [With Google Drive]

0 Members and 1 Guest are viewing this topic.

November 01, 2017, 07:29:30 PM
  • Elite Moderator
  • Legend Member
  • ****
  • Topic Author
  • Thank You: 3543
  • Reputation: 668
  • Activity:
    100%
  • Country: in
  • Posts: 3176
  • Topics: 2666
  • Join Date: Jan 2014
  • ıllıllı ѕмoĸιng ιѕ good ғor нealтн ıllıllı :)
Toilet Ek Prem Katha 2017 Hindi 720p BluRay x264 AC3 5.1 ESub-Hon3y - 3.0 GB



:info:

Source: BD50 @ Hon3yHD


Format                                   : Matroska
Format version                           : Version 4 / Version 2
File size                                : 3.01 GiB
Duration                                 : 2 h 33 min
Overall bit rate                         : 2 809 kb/s
Movie name                               : Toilet Ek Prem Katha 2017-Hon3y


Video
ID                                       : 1
Format                                   : AVC
Format/Info                              : Advanced Video Codec
Format profile                           : [email protected]
Format settings                          : CABAC / 8 Ref Frames
Format settings, CABAC                   : Yes
Format settings, RefFrames               : 8 frames
Codec ID                                 : V_MPEG4/ISO/AVC
Duration                                 : 2 h 33 min
Bit rate                                 : 2 167 kb/s
Width                                    : 1 280 pixels
Height                                   : 536 pixels
Display aspect ratio                     : 2.40:1
Frame rate mode                          : Constant
Frame rate                               : 24.000 FPS


Audio
ID                                       : 2
Format                                   : AC-3
Format/Info                              : Audio Coding 3
Format settings, Endianness              : Big
Codec ID                                 : A_AC3
Duration                                 : 2 h 33 min
Bit rate mode                            : Constant
Bit rate                                 : 640 kb/s
Channel(s)                               : 6 channels
Channel positions                        : Front: L C R, Side: L R, LFE
Sampling rate                            : 48.0 kHz
Frame rate                               : 31.250 FPS (1536 SPF)
Bit depth                                : 16 bits
Compression mode                         : Lossy
Stream size                              : 702 MiB (23%)
Language                                 : Hindi
Service kind                             : Complete Main
Default                                  : Yes
Forced                                   : No

Text
ID                                       : 3
Format                                   : UTF-8
Codec ID                                 : S_TEXT/UTF8
Codec ID/Info                            : UTF-8 Plain Text
Duration                                 : 2 h 31 min
Bit rate                                 : 71 b/s
Count of elements                        : 2310
Stream size                              : 79.6 KiB (0%)
Language                                 : English
Default                                  : Yes
Forced                                   : No

Menu
00:00:00.000                             : en:Chapter 01
00:09:58.500                             : en:Chapter 02
00:16:12.500                             : en:Chapter 03
00:22:17.500                             : en:Chapter 04
00:24:17.958                             : en:Chapter 05
00:37:34.000                             : en:Chapter 06
00:44:07.500                             : en:Chapter 07
00:46:25.125                             : en:Chapter 08
00:51:04.500                             : en:Chapter 09
01:02:22.500                             : en:Chapter 10
01:13:12.000                             : en:Chapter 11
01:16:04.791                             : en:Chapter 12
01:24:55.500                             : en:Chapter 13
01:36:11.750                             : en:Chapter 14
01:40:06.833                             : en:Chapter 15
01:50:44.583                             : en:Chapter 16
01:58:19.083                             : en:Chapter 17
02:01:23.416                             : en:Chapter 18
02:05:21.916                             : en:Chapter 19
02:31:41.416                             : en:Chapter 20


:ss:











:download:

Quote










Updated Link

Quote









File Leeched & Uploaded From




Don't walk as you are king, walk as you don't care who the king is....!!
Never argue with an idiot. They drag you down to their level and then beat you with experience?

Share this topic on FacebookShare this topic on GoogleShare this topic on MySpaceShare this topic on TwitterShare this topic on Yahoo

« Last Edit: November 02, 2017, 12:02:38 PM by Rάήνίјάч1234 »



Don't walk as you are king, walk as you don't care who the king is....!!

Thanks given by:


November 12, 2017, 05:45:13 PM
Reply #1
  • Newbie
  • **
  • Thank You: 0
  • Reputation: 0
  • Activity:
    0.4%
  • Country: us
  • Posts: 4
  • Topics: 0
  • Join Date: Aug 2016
  • ShareSpark Member

November 13, 2017, 04:56:10 AM
Reply #2
  • Begginer
  • **
  • Thank You: 0
  • Reputation: 1
  • Activity:
    0.4%
  • Posts: 69
  • Topics: 0
  • Join Date: Sep 2013
  • ShareSpark Member

Tags:
 

Related Topics





Back to top