+ ShareSpark.net »  :::: Bollywood Zone » Bollywood Movies (Original Rips) » High Resolution Movies
|- Toilet Ek Prem Katha 2017 Hindi 1080p BluRay x264 DTS 5.1 ESub-Hon3y - 4.37 GB [With Google Drive]


Toilet Ek Prem Katha 2017 Hindi 1080p BluRay x264 DTS 5.1 ESub-Hon3y - 4.37 GB [With Google Drive]

0 Members and 1 Guest are viewing this topic.

November 01, 2017, 08:48:04 PM
  • Elite Moderator
  • Legend Member
  • ****
  • Topic Author
  • Thank You: 3543
  • Reputation: 668
  • Activity:
    100%
  • Country: in
  • Posts: 3176
  • Topics: 2666
  • Join Date: Jan 2014
  • ıllıllı ѕмoĸιng ιѕ good ғor нealтн ıllıllı :)
Toilet Ek Prem Katha 2017 Hindi 1080p BluRay x264 DTS 5.1 ESub-Hon3y - 4.37 GB



Quote
Source: BD50 @ Hon3yHD

Format                      : Matroska
Format version              : Version 4 / Version 2
File size                   : 4.37 GiB
Duration                    : 2 h 33 min
Overall bit rate            : 4 084 kb/s
Movie name                  : Toilet Ek Prem Katha 2017-Hon3y


Video
ID                          : 1
Format                      : AVC
Format/Info                 : Advanced Video Codec
Format profile              : [email protected]
Format settings, CABAC      : Yes
Format settings, ReFrames   : 5 frames
Codec ID                    : V_MPEG4/ISO/AVC
Duration                    : 2 h 33 min
Bit rate                    : 3 314 kb/s
Width                       : 1 920 pixels
Height                      : 800 pixels
Display aspect ratio        : 2.40:1
Frame rate mode             : Constant
Frame rate                  : 24.000 FPS

Audio
ID                          : 2
Format                      : DTS
Format/Info                 : Digital Theater Systems
Mode                        : 16
Format settings, Endianness : Big
Codec ID                    : A_DTS
Duration                    : 2 h 33 min
Bit rate mode               : Constant
Bit rate                    : 768 kb/s
Channel(s)                  : 6 channels
Channel positions           : Front: L C R, Side: L R, LFE
Sampling rate               : 48.0 kHz
Frame rate                  : 93.750 FPS (512 spf)
Bit depth                   : 24 bits
Compression mode            : Lossy
Stream size                 : 842 MiB (19%)
Language                    : Hindi
Default                     : Yes
Forced                      : No

Text
ID                          : 3
Format                      : UTF-8
Codec ID                    : S_TEXT/UTF8
Codec ID/Info               : UTF-8 Plain Text
Duration                    : 2 h 31 min
Bit rate                    : 71 b/s
Count of elements           : 2310
Stream size                 : 79.6 KiB (0%)
Language                    : English
Default                     : Yes
Forced                      : No

Menu
00:00:00.000                : en:Chapter 01
00:09:58.500                : en:Chapter 02
00:16:12.500                : en:Chapter 03
00:22:17.500                : en:Chapter 04
00:24:17.958                : en:Chapter 05
00:37:34.000                : en:Chapter 06
00:44:07.500                : en:Chapter 07
00:46:25.125                : en:Chapter 08
00:51:04.500                : en:Chapter 09
01:02:22.500                : en:Chapter 10
01:13:12.000                : en:Chapter 11
01:16:04.791                : en:Chapter 12
01:24:55.500                : en:Chapter 13
01:36:11.750                : en:Chapter 14
01:40:06.833                : en:Chapter 15
01:50:44.583                : en:Chapter 16
01:58:19.083                : en:Chapter 17
02:01:23.416                : en:Chapter 18
02:05:21.916                : en:Chapter 19
02:31:41.416                : en:Chapter 20

:ss:








:download:

Quote











File Leeched & Uploaded From




Don't walk as you are king, walk as you don't care who the king is....!!
Never argue with an idiot. They drag you down to their level and then beat you with experience?

Share this topic on FacebookShare this topic on GoogleShare this topic on MySpaceShare this topic on TwitterShare this topic on Yahoo

« Last Edit: November 01, 2017, 09:27:20 PM by Rάήνίјάч1234 »



Don't walk as you are king, walk as you don't care who the king is....!!

Thanks given by:


November 01, 2017, 09:13:48 PM
Reply #1
  • Addic7ed
  • Royal Member
  • ****
  • Thank You: 116
  • Reputation: 78
  • Activity:
    4.8%
  • Country: pk
  • Posts: 1088
  • Topics: 323
  • Join Date: Sep 2012
  • ShareSpark Member

November 18, 2017, 07:07:40 PM
Reply #2
  • Legend (Inactive)
  • Legend Member
  • ***
  • Thank You: 315
  • Reputation: 191
  • Activity:
    0.2%
  • Country: in
  • Posts: 1733
  • Topics: 173
  • Join Date: Jun 2012
  • ShareSpark Member
drive link is not working bro..if possible please update it today
« Last Edit: November 18, 2017, 07:12:23 PM by νι¢куяσ¢кѕѕ ♥ »
Dont beg for reps , If  members really like your post they definetly gonna add reps to you


Tags:
 

Related Topics





Back to top