+ ShareSpark.net »  :::: Bollywood Zone » Bollywood Movies (Original Rips) » High Resolution Movies
|- Chef (2017) 1080p WEBHD H264 AAC2.0 ESub - DTOne - 6.46 GB


  • Chef (2017) 1080p WEBHD H264 AAC2.0 ESub - DTOne - 6.46 GB 5 1
Currently:  

Chef (2017) 1080p WEBHD H264 AAC2.0 ESub - DTOne - 6.46 GB

0 Members and 1 Guest are viewing this topic.

November 11, 2017, 05:26:22 PM
  • Elite Moderator
  • Legend Member
  • ****
  • Topic Author
  • Thank You: 3543
  • Reputation: 668
  • Activity:
    100%
  • Country: in
  • Posts: 3176
  • Topics: 2666
  • Join Date: Jan 2014
  • ıllıllı ѕмoĸιng ιѕ good ғor нealтн ıllıllı :)
Chef (2017) 1080p WEBHD H264 AAC2.0 ESub - DTOne - 6.46 GB



:info:

Quote
General
Complete name               : Chef (2017) 1080p WEBHD H264 AAC2.0 ESub - DTOne.mp4
Format                      : MPEG-4
Format profile              : Base Media
Codec ID                    : isom (isom/iso2/avc1/mp41)
File size                   : 6.46 GiB
Duration                    : 2 h 11 min
Overall bit rate mode       : Variable
Overall bit rate            : 7 037 kb/s
Movie name                  : Chef (2017)
Performer                   : Drama, Comedy
Recorded date               : 2017
Tagged date                 : UTC 2017-11-11 09:17:30
Writing application         : Lavf54.63.104
Cover                       : Yes
Lyrics                      : Chef Roshan Kalra sets out to find the true source of happiness and reignite his passion for food while being more present in his son's life.

Video
ID                          : 1
Format                      : AVC
Format/Info                 : Advanced Video Codec
Format profile              : [email protected]
Format settings             : CABAC / 3 Ref Frames
Format settings, CABAC      : Yes
Format settings, RefFrames  : 3 frames
Format settings, GOP        : M=2, N=15
Codec ID                    : avc1
Codec ID/Info               : Advanced Video Coding
Duration                    : 2 h 11 min
Bit rate                    : 6 780 kb/s
Width                       : 1 920 pixels
Height                      : 1 080 pixels
Display aspect ratio        : 16:9
Frame rate mode             : Constant
Frame rate                  : 25.000 FPS
Color space                 : YUV
Chroma subsampling          : 4:2:0
Bit depth                   : 8 bits
Scan type                   : Progressive
Bits/(Pixel*Frame)          : 0.131
Stream size                 : 6.22 GiB (96%)

Audio
ID                          : 2
Format                      : AAC
Format/Info                 : Advanced Audio Codec
Format profile              : LC
Codec ID                    : mp4a-40-2
Duration                    : 2 h 11 min
Bit rate mode               : Variable
Bit rate                    : 239 kb/s
Maximum bit rate            : 341 kb/s
Channel(s)                  : 2 channels
Channel positions           : Front: L R
Sampling rate               : 44.1 kHz
Frame rate                  : 43.066 FPS (1024 SPF)
Compression mode            : Lossy
Stream size                 : 225 MiB (3%)
Language                    : Hindi
Default                     : Yes












:download:

Quote





File Leeched & Uploaded From




Don't walk as you are king, walk as you don't care who the king is....!!
Never argue with an idiot. They drag you down to their level and then beat you with experience?

Share this topic on FacebookShare this topic on GoogleShare this topic on MySpaceShare this topic on TwitterShare this topic on Yahoo

« Last Edit: November 11, 2017, 05:29:08 PM by Rάήνίјάч1234 »



Don't walk as you are king, walk as you don't care who the king is....!!

Thanks given by:


November 11, 2017, 05:32:02 PM
Reply #1
  • Addic7ed
  • Legend Member
  • ****
  • Thank You: 1705
  • Reputation: 230
  • Activity:
    100%
  • Country: in
  • Posts: 3082
  • Topics: 2291
  • Join Date: Sep 2016
  • (: EnJOy D LiFe :)

Tags:
 

Related Topics





Back to top