+ ShareSpark.net »  :::: Bollywood Zone » Bollywood Movies (Original Rips)
|- Chef (2017) Untouched 720p WEBHD [JamesBond007]


Chef (2017) Untouched 720p WEBHD [JamesBond007]

0 Members and 1 Guest are viewing this topic.

November 11, 2017, 05:38:56 PM
  • Elite Moderator
  • Legend Member
  • ****
  • Topic Author
  • Thank You: 3543
  • Reputation: 668
  • Activity:
    100%
  • Country: in
  • Posts: 3176
  • Topics: 2666
  • Join Date: Jan 2014
  • ıllıllı ѕмoĸιng ιѕ good ғor нealтн ıllıllı :)
Chef (2017) Untouched 720p WEBHD [JamesBond007]





Quote
Format                                   : MPEG-4
Format profile                           : Base Media
Codec ID                                 : isom (isom/iso2/avc1/mp41)
File size                                : 4.74 GiB
Duration                                 : 2 h 11 min
Overall bit rate                         : 5 160 kb/s
Writing application                      : Lavf56.40.101



Quote

Video
ID                                       : 1
Format                                   : AVC
Format/Info                              : Advanced Video Codec
Format profile                           : [email protected]
Format settings, CABAC                   : No
Format settings, RefFrames               : 1 frame
Format settings, GOP                     : M=1, N=10
Codec ID                                 : avc1
Codec ID/Info                            : Advanced Video Coding
Duration                                 : 2 h 11 min
Bit rate                                 : 4 961 kb/s
Width                                    : 1 366 pixels
Height                                   : 768 pixels
Display aspect ratio                     : 16:9
Frame rate mode                          : Variable
Frame rate                               : 24.919 FPS
Minimum frame rate                       : 12.500 FPS
Maximum frame rate                       : 25.000 FPS
Color space                              : YUV
Chroma subsampling                       : 4:2:0
Bit depth                                : 8 bits
Scan type                                : Progressive
Bits/(Pixel*Frame)                       : 0.190
Stream size                              : 4.55 GiB (96%)

Audio
ID                                       : 2
Format                                   : MPEG Audio
Format version                           : Version 1
Format profile                           : Layer 3
Mode                                     : Joint stereo
Mode extension                           : MS Stereo
Codec ID                                 : 6B
Duration                                 : 2 h 11 min
Bit rate mode                            : Constant
Bit rate                                 : 192 kb/s
Channel(s)                               : 2 channels
Sampling rate                            : 44.1 kHz
Compression mode                         : Lossy
Stream size                              : 181 MiB (4%)
Writing library                          : LAME3.99.5
Default                                  : Yes
Alternate group                          : 1








:download:

Quote








File Leeched & Uploaded From




Don't walk as you are king, walk as you don't care who the king is....!!
Never argue with an idiot. They drag you down to their level and then beat you with experience?

Share this topic on FacebookShare this topic on GoogleShare this topic on MySpaceShare this topic on TwitterShare this topic on Yahoo




Don't walk as you are king, walk as you don't care who the king is....!!

Thanks given by:


Tags:
 

Related Topics





Back to top