+ ShareSpark.net »  :::: Bollywood Zone » Bollywood Movies (Original Rips)
|- Jagga Jasoos 2017 720p Esub BluRay 5.1 Hindi GOPISAHI


Jagga Jasoos 2017 720p Esub BluRay 5.1 Hindi GOPISAHI

0 Members and 1 Guest are viewing this topic.

November 13, 2017, 08:53:15 AM
  • Team SSX
  • Elite Member
  • ***
  • Topic Author
  • Thank You: 191
  • Reputation: 47
  • Activity:
    46.4%
  • Country: in
  • Posts: 407
  • Topics: 385
  • Join Date: Oct 2013
  • ShareSpark Member

Format                         : Matroska
Format version                 : Version 4 / Version 2
File size                      : 800 MiB
Duration                       : 2 h 41 min
Overall bit rate               : 692 kb/s
Movie name                     : Jagga Jasoos 2017

Video
Format                         : AVC
Codec ID                       : V_MPEG4/ISO/AVC
Duration                       : 2 h 41 min
Bit rate                       : 600 kb/s
Width                          : 1 280 pixels
Height                         : 536 pixels
Display aspect ratio           : 2.40:1
Frame rate mode                : Constant
Frame rate                     : 24.000 FP
Bits/(Pixel*Frame)             : 0.036
Stream size                    : 694 MiB (87%)
Writing library                : x264

Audio
Format                         : AAC
Duration                       : 2 h 41 min
Bit rate                       : 89.6 kb/s
Channel(s)                     : 6 channels
Channel positions              : Front: L C R, Side: L R, LFE
Sampling rate                  : 44.1 kHz
Frame rate                     : 43.066 FPS (1024 SPF)
Stream size                    : 104 MiB (13%)
Language                       : Hindi

Text
Language                       : English




Share this topic on FacebookShare this topic on GoogleShare this topic on MySpaceShare this topic on TwitterShare this topic on Yahoo




Tags:
 

Related Topics





Back to top