+ ShareSpark.net »  :::: Bollywood Zone » Bollywood Movies (Original Rips)
|- Bareilly Ki Barfi 2017 720p Esub BluRay 5.1 Hindi GD @ TEAM ICTV


Bareilly Ki Barfi 2017 720p Esub BluRay 5.1 Hindi GD @ TEAM ICTV

0 Members and 1 Guest are viewing this topic.

November 13, 2017, 09:04:55 PM
  • Team SSX
  • Elite Member
  • ***
  • Topic Author
  • Thank You: 191
  • Reputation: 47
  • Activity:
    46.4%
  • Country: in
  • Posts: 407
  • Topics: 385
  • Join Date: Oct 2013
  • ShareSpark Member

Format                         : Matroska
Format version                 : Version 4 / Version 2
File size                      : 574 MiB
Duration                       : 1 h 55 min
Overall bit rate               : 694 kb/s
Movie name                     : Bareilly Ki Barfi 2017 GOPISAHI

Video
Format                         : AVC
Codec ID                       : V_MPEG4/ISO/AVC
Duration                       : 1 h 55 min
Bit rate                       : 600 kb/s
Width                          : 1 280 pixels
Height                         : 536 pixels
Display aspect ratio           : 2.40:1
Frame rate mode                : Constant
Frame rate                     : 24.000 FPS
Stream size                    : 496 MiB (87%)
Title                          : GOPISAHI
Writing library                : x264
Language                       : Hindi

Audio
Format                         : AAC
Duration                       : 1 h 55 min
Bit rate                       : 91.2 kb/s
Channel(s)                     : 6 channels
Channel positions              : Front: L C R, Side: L R, LFE
Sampling rate                  : 44.1 kHz
Frame rate                     : 43.066 FPS (1024 SPF)
Stream size                    : 75.4 MiB (13%)
Title                          : GOPISAHI
Language                       : Hindi


Text
Title                          : Bareilly Ki Barfi 2017 GOPISAHI
Language                       : English




Share this topic on FacebookShare this topic on GoogleShare this topic on MySpaceShare this topic on TwitterShare this topic on Yahoo




Tags:
 

Related Topics





Back to top