+ ShareSpark.net »  :::: Bollywood Zone » Bollywood Movies (Original Rips)
|- Ek Villain 2014 Hindi 720p BluRay x264 AAC 5.1 MSubS-Hon3y - 1.40 GB


  • Ek Villain 2014 Hindi 720p BluRay x264 AAC 5.1 MSubS-Hon3y - 1.40 GB 5 1
Currently:  

Ek Villain 2014 Hindi 720p BluRay x264 AAC 5.1 MSubS-Hon3y - 1.40 GB

0 Members and 1 Guest are viewing this topic.

November 14, 2017, 08:50:30 AM
  • Team SSX
  • Hero Member
  • ***
  • Topic Author
  • Thank You: 126
  • Reputation: 12
  • Activity:
    24.2%
  • Country: in
  • Posts: 311
  • Topics: 311
  • Join Date: Dec 2016
  • ShareSpark Member



-:: Information ::-

Source : BD50 @ DRs . Thanks !
Format                      : Matroska
Format version              : Version 4 / Version 2
File size                   : 1.45 GiB
Duration                    : 2 h 8 min
Overall bit rate            : 1 606 kb/s
Movie name                  : Ek Villain 2014 [email protected]@ Hon3y

Video
ID                          : 1
Format                      : AVC
Format/Info                 : Advanced Video Codec
Format profile              :[email protected]
Format settings, CABAC      : Yes
Format settings, ReFrames   : 8 frames
Codec ID                    : V_MPEG4/ISO/AVC
Duration                    : 2 h 8 min
Bit rate                    : 1 412 kb/s
Width                       : 1 280 pixels
Height                      : 544 pixels
Display aspect ratio        : 2.35:1
Frame rate mode             : Constant
Frame rate                  : 24.000 FPS
Language                    : Hindi
Default                     : Yes
Forced                      : No

Audio
ID                          : 2
Format                      : AAC
Format/Info                 : Advanced Audio Codec
Format profile              : LC
Codec ID                    : A_AAC
Duration                    : 2 h 8 min
Bit rate                    : 192 kb/s
Channel(s)                  : 6 channels
Channel positions           : Front: L C R, Side: L R, LFE
Sampling rate               : 48.0 kHz
Frame rate                  : 46.875 FPS (1024 spf)
Compression mode            : Lossy
Delay relative to video     : 9 ms
Stream size                 : 177 MiB (12%)
Language                    : Hindi
Default                     : Yes
Forced                      : No

Text #1
ID                          : 3
Format                      : UTF-8
Codec ID                    : S_TEXT/UTF8
Codec ID/Info               : UTF-8 Plain Text
Duration                    : 2 h 6 min
Bit rate                    : 49 b/s
Count of elements           : 1567
Stream size                 : 45.8 KiB (0%)
Language                    : English
Default                     : Yes
Forced                      : No

Text #2
ID                          : 4
Format                      : UTF-8
Codec ID                    : S_TEXT/UTF8
Codec ID/Info               : UTF-8 Plain Text
Duration                    : 2 h 6 min
Bit rate                    : 71 b/s
Count of elements           : 1561
Stream size                 : 66.5 KiB (0%)
Language                    : Arabic
Default                     : No
Forced                      : No

-:: ScreenShots ::-







-:: DOWNLOAD ::-






Share this topic on FacebookShare this topic on GoogleShare this topic on MySpaceShare this topic on TwitterShare this topic on Yahoo



Thanks given by:


Tags:
 

Related Topics

  Subject / Started by Replies Last post
7 Replies
661 Views
Last post September 06, 2014, 12:56:24 PM
by Habibur Rahman Mahi
0 Replies
428 Views
Last post September 09, 2014, 03:31:39 PM
by Noµʍaɲ
0 Replies
753 Views
Last post September 09, 2014, 09:47:24 PM
by Noµʍaɲ
0 Replies
358 Views
Last post March 31, 2015, 02:41:17 PM
by ddr_mizu
1 Replies
279 Views
Last post June 26, 2015, 10:37:40 PM
by maksud




Back to top