+ ShareSpark.net »  :::: Dubbed Zone (Dubbed English in Hindi) » English Movies Dubbed in Hindi
|- Survivor 2015 720p Esub BluRay Dual Audio English Hindi GOPISAHI


Survivor 2015 720p Esub BluRay Dual Audio English Hindi GOPISAHI

0 Members and 1 Guest are viewing this topic.

November 14, 2017, 08:58:57 PM
  • Team SSX
  • Elite Member
  • ***
  • Topic Author
  • Thank You: 191
  • Reputation: 47
  • Activity:
    46.4%
  • Country: in
  • Posts: 407
  • Topics: 385
  • Join Date: Oct 2013
  • ShareSpark Member

Format                         : Matroska
Format version                 : Version 4 / Version 2
File size                      : 811 MiB
Duration                       : 1 h 36 min
Overall bit rate               : 1 175 kb/s
Movie name                     : Survivor 2015

Video
Format                         : AVC
Codec ID                       : V_MPEG4/ISO/AVC
Duration                       : 1 h 36 min
Bit rate                       : 996 kb/s
Width                          : 1 280 pixels
Height                         : 536 pixels
Display aspect ratio           : 2.40:1
Frame rate mode                : Constant
Frame rate                     : 23.976 (24000/1001) FPS
Original frame rate            : 23.976 (23976/1000) FPS
Stream size                    : 687 MiB (85%)
Writing library                : x264

Audio #1
Format                         : AAC
Duration                       : 1 h 36 min
Bit rate                       : 84.9 kb/s
Channel(s)                     : 6 channels
Channel positions              : Front: L C R, Side: L R, LFE
Sampling rate                  : 44.1 kHz
Frame rate                     : 43.066 FPS (1024 SPF)
Stream size                    : 58.6 MiB (7%)
Language                       : English

Audio #2
Format                         : AAC
Duration                       : 1 h 36 min
Bit rate                       : 91.4 kb/s
Channel(s)                     : 6 channels
Channel positions              : Front: L C R, Side: L R, LFE
Sampling rate                  : 44.1 kHz
Frame rate                     : 43.066 FPS (1024 SPF)
Stream size                    : 63.1 MiB (8%)
Language                       : Hindi

Text
Language                       : English




Share this topic on FacebookShare this topic on GoogleShare this topic on MySpaceShare this topic on TwitterShare this topic on Yahoo




Tags:
 

Related Topics





Back to top