+ ShareSpark.net »  :::: Dubbed Zone (Dubbed English in Hindi) » English Movies Dubbed in Hindi
|- Survivor (2015) 720p BluRay x264 Dual Audio [Hindi DD 2.0 + English DD 5.1] ~ Ranvijay - 2.50 GB


Survivor (2015) 720p BluRay x264 Dual Audio [Hindi DD 2.0 + English DD 5.1] ~ Ranvijay - 2.50 GB

0 Members and 1 Guest are viewing this topic.

November 14, 2017, 09:59:01 PM
  • Elite Moderator
  • Legend Member
  • ****
  • Topic Author
  • Thank You: 3550
  • Reputation: 674
  • Activity:
    100%
  • Country: in
  • Posts: 3176
  • Topics: 2666
  • Join Date: Jan 2014
  • ıllıllı ѕмoĸιng ιѕ good ғor нealтн ıllıllı :)


Survivor (2015) 720p BluRay x264 Dual Audio [Hindi DD 2.0 + English DD 5.1] ~ Ranvijay

Thanks To Dr Star For Hindi Audio

Quote
Format                                   : Matroska
Format version                           : Version 4 / Version 2
File size                                : 2.48 GiB
Duration                                 : 1 h 36 min
Overall bit rate                         : 3 681 kb/s

Video
ID                                       : 1
Format                                   : AVC
Duration                                 : 1 h 36 min
Bit rate                                 : 3 100 kb/s
Width                                    : 1 280 pixels
Height                                   : 536 pixels
Display aspect ratio                     : 2.40:1
Frame rate mode                          : Constant
Frame rate                               : 23.976 (24000/1001) FPS
Title                                    : ~Ranvijay~
Language                                 : English
Default                                  : Yes
Forced                                   : No

Audio #1
ID                                       : 2
Format                                   : AC-3
Format/Info                              : Audio Coding 3
Codec ID                                 : A_AC3
Duration                                 : 1 h 36 min
Bit rate mode                            : Constant
Bit rate                                 : 448 kb/s
Channel(s)                               : 6 channels
Channel positions                        : Front: L C R, Side: L R, LFE
Sampling rate                            : 48.0 kHz
Frame rate                               : 31.250 FPS (1536 SPF)
Bit depth                                : 16 bits
Compression mode                         : Lossy
Stream size                              : 309 MiB (12%)
Title                                    : ~Ranvijay~
Language                                 : English
Service kind                             : Complete Main
Default                                  : No
Forced                                   : No

Audio #2
ID                                       : 3
Format                                   : AC-3
Format/Info                              : Audio Coding 3
Codec ID                                 : A_AC3
Duration                                 : 1 h 36 min
Bit rate mode                            : Constant
Bit rate                                 : 224 kb/s
Channel(s)                               : 2 channels
Channel positions                        : Front: L R
Sampling rate                            : 48.0 kHz
Frame rate                               : 31.250 FPS (1536 SPF)
Bit depth                                : 16 bits
Compression mode                         : Lossy
Stream size                              : 155 MiB (6%)
Title                                    : ~Ranvijay~
Language                                 : Hindi
Service kind                             : Complete Main
Default                                  : Yes
Forced                                   : No

Menu
00:00:00.000                             : Chapter 1
00:07:14.560                             : Chapter 2
00:16:04.674                             : Chapter 3
00:24:17.583                             : Chapter 4
00:32:13.893                             : Chapter 5
00:39:44.302                             : Chapter 6
00:47:37.484                             : Chapter 7
00:56:07.036                             : Chapter 8
01:03:35.192                             : Chapter 9
01:11:51.272                             : Chapter 10
01:19:03.496                             : Chapter 11
01:27:43.266                             : Chapter 12




















:download:

Quote








File Leeched & Uploaded From




Don't walk as you are king, walk as you don't care who the king is....!!
Never argue with an idiot. They drag you down to their level and then beat you with experience?

Share this topic on FacebookShare this topic on GoogleShare this topic on MySpaceShare this topic on TwitterShare this topic on Yahoo




Don't walk as you are king, walk as you don't care who the king is....!!

Thanks given by:


Tags:
 

Related Topics





Back to top