+ ShareSpark.net »  :::: Bollywood Zone » Bollywood Movies (Original Rips)
|- Buddah Hoga Terra Baap 2011 Hindi 720p BluRay x264 AAC 5.1-Hon3y - 1.44 GB


Buddah Hoga Terra Baap 2011 Hindi 720p BluRay x264 AAC 5.1-Hon3y - 1.44 GB

0 Members and 1 Guest are viewing this topic.

November 14, 2017, 10:07:13 PM
  • Elite Moderator
  • Legend Member
  • ****
  • Topic Author
  • Thank You: 3543
  • Reputation: 668
  • Activity:
    100%
  • Country: in
  • Posts: 3176
  • Topics: 2666
  • Join Date: Jan 2014
  • ıllıllı ѕмoĸιng ιѕ good ғor нealтн ıllıllı :)
Buddah Hoga Terra Baap 2011 Hindi 720p BluRay x264 AAC 5.1-Hon3y - 1.44 GB



:info:

Quote
Source : BD50 @ DRs . Thanks !

Format                                   : Matroska
Format version                           : Version 4 / Version 2
File size                                : 1.44 GiB
Duration                                 : 1 h 57 min
Overall bit rate                         : 1 752 kb/s
Movie name                               : Bbuddah Hoga Terra Baap 2011- [email protected] @ Hon3y


Video
ID                                       : 1
Format                                   : AVC
Format/Info                              : Advanced Video Codec
Format profile                           : [email protected]
Format settings                          : CABAC / 8 Ref Frames
Format settings, CABAC                   : Yes
Format settings, RefFrames               : 8 frames
Codec ID                                 : V_MPEG4/ISO/AVC
Duration                                 : 1 h 57 min
Bit rate                                 : 1 559 kb/s
Width                                    : 1 280 pixels
Height                                   : 544 pixels
Display aspect ratio                     : 2.35:1
Frame rate mode                          : Constant
Frame rate                               : 29.970 (30000/1001) FPS
Language                                 : Hindi
Default                                  : Yes
Forced                                   : No

Audio
ID                                       : 2
Format                                   : AAC
Format/Info                              : Advanced Audio Codec
Format profile                           : LC
Codec ID                                 : A_AAC-2
Duration                                 : 1 h 57 min
Bit rate                                 : 192 kb/s
Channel(s)                               : 6 channels
Channel positions                        : Front: L C R, Side: L R, LFE
Sampling rate                            : 48.0 kHz
Frame rate                               : 46.875 FPS (1024 SPF)
Compression mode                         : Lossy
Delay relative to video                  : 9 ms
Stream size                              : 162 MiB (11%)
Language                                 : Hindi
Default                                  : Yes
Forced                                   : No

Text #1
ID                                       : 3
Format                                   : UTF-8
Codec ID                                 : S_TEXT/UTF8
Codec ID/Info                            : UTF-8 Plain Text
Duration                                 : 1 h 48 min
Bit rate                                 : 61 b/s
Count of elements                        : 1635
Stream size                              : 48.8 KiB (0%)
Language                                 : English
Default                                  : Yes
Forced                                   : No

Text #2
ID                                       : 4
Format                                   : UTF-8
Codec ID                                 : S_TEXT/UTF8
Codec ID/Info                            : UTF-8 Plain Text
Duration                                 : 1 h 48 min
Bit rate                                 : 68 b/s
Count of elements                        : 1623
Stream size                              : 54.2 KiB (0%)
Language                                 : Arabic
Default                                  : No
Forced                                   : No

Menu
00:00:00.000                             : en:00:00:00.000
00:00:49.049                             : en:00:00:49.049
00:06:39.399                             : en:00:06:39.399
00:09:08.089                             : en:00:09:08.089
00:18:03.332                             : en:00:18:03.332
00:24:04.943                             : en:00:24:04.943
00:31:46.029                             : en:00:31:46.029
00:33:52.989                             : en:00:33:52.989
00:39:31.578                             : en:00:39:31.578
00:47:18.210                             : en:00:47:18.210
00:51:47.396                             : en:00:51:47.396
00:54:58.629                             : en:00:54:58.629
01:03:34.394                             : en:01:03:34.394
01:08:18.344                             : en:01:08:18.344
01:16:34.548                             : en:01:16:34.548
01:24:30.565                             : en:01:24:30.565
01:34:39.924                             : en:01:34:39.924
01:37:54.327                             : en:01:37:54.327
01:48:59.867                             : en:01:48:59.867
01:52:11.516                             : en:01:52:11.516

:ss:







:download:

Quote











File Leeched & Uploaded From




Don't walk as you are king, walk as you don't care who the king is....!!
Never argue with an idiot. They drag you down to their level and then beat you with experience?

Share this topic on FacebookShare this topic on GoogleShare this topic on MySpaceShare this topic on TwitterShare this topic on Yahoo




Don't walk as you are king, walk as you don't care who the king is....!!

Thanks given by:


Tags:
 

Related Topics





Back to top