+ ShareSpark.net »  :::: Bollywood Zone » Bollywood Movies (Original Rips) » High Resolution Movies
|- Bbuddah Hoga Terra Baap 2011 Hindi 1080p BluRay x264 DTS 5.1 -Hon3y


Bbuddah Hoga Terra Baap 2011 Hindi 1080p BluRay x264 DTS 5.1 -Hon3y

0 Members and 1 Guest are viewing this topic.

November 14, 2017, 10:50:44 PM
  • Elite Moderator
  • Legend Member
  • ****
  • Topic Author
  • Thank You: 3536
  • Reputation: 667
  • Activity:
    100%
  • Country: in
  • Posts: 3176
  • Topics: 2666
  • Join Date: Jan 2014
  • ıllıllı ѕмoĸιng ιѕ good ғor нealтн ıllıllı :)
Bbuddah Hoga Terra Baap 2011 Hindi 1080p BluRay x264 DTS 5.1 -Hon3y



:info:

Quote
Format                                   : Matroska
Format version                           : Version 4 / Version 2
File size                                : 4.37 GiB
Duration                                 : 1 h 57 min
Overall bit rate                         : 5 306 kb/s
Movie name                               : Bbuddah Hoga Terra Baap 2011- [email protected] @ Hon3y


Video
ID                                       : 1
Format                                   : AVC
Format/Info                              : Advanced Video Codec
Format profile                           : [email protected]
Format settings                          : CABAC / 5 Ref Frames
Format settings, CABAC                   : Yes
Format settings, RefFrames               : 5 frames
Codec ID                                 : V_MPEG4/ISO/AVC
Duration                                 : 1 h 57 min
Bit rate                                 : 4 536 kb/s
Width                                    : 1 920 pixels
Height                                   : 816 pixels
Display aspect ratio                     : 2.35:1
Frame rate mode                          : Constant
Frame rate                               : 29.970 (30000/1001) FPS
Color space                              : YUV
Chroma subsampling                       : 4:2:0
Bit depth                                : 8 bits
Scan type                                : Progressive
Bits/(Pixel*Frame)                       : 0.097
Stream size                              : 3.74 GiB (85%)
Writing library                          : x264 core 150 r2833 df79067
Language                                 : Hindi
Default                                  : Yes
Forced                                   : No

Audio
ID                                       : 2
Format                                   : DTS
Format/Info                              : Digital Theater Systems
Mode                                     : 16
Format settings, Endianness              : Big
Codec ID                                 : A_DTS
Duration                                 : 1 h 57 min
Bit rate mode                            : Constant
Bit rate                                 : 768 kb/s
Channel(s)                               : 6 channels
Channel positions                        : Front: L C R, Side: L R, LFE
Sampling rate                            : 48.0 kHz
Frame rate                               : 93.750 FPS (512 SPF)
Bit depth                                : 24 bits
Compression mode                         : Lossy
Stream size                              : 648 MiB (14%)
Language                                 : Hindi
Default                                  : Yes
Forced                                   : No

Text #1
ID                                       : 3
Format                                   : UTF-8
Codec ID                                 : S_TEXT/UTF8
Codec ID/Info                            : UTF-8 Plain Text
Duration                                 : 1 h 48 min
Bit rate                                 : 61 b/s
Count of elements                        : 1635
Stream size                              : 48.8 KiB (0%)
Language                                 : English
Default                                  : Yes
Forced                                   : No

Text #2
ID                                       : 4
Format                                   : UTF-8
Codec ID                                 : S_TEXT/UTF8
Codec ID/Info                            : UTF-8 Plain Text
Duration                                 : 1 h 48 min
Bit rate                                 : 68 b/s
Count of elements                        : 1314
Stream size                              : 54.2 KiB (0%)
Language                                 : Arabic
Default                                  : No
Forced                                   : No

Menu
00:00:00.000                             : en:00:00:00.000
00:00:49.049                             : en:00:00:49.049
00:06:39.399                             : en:00:06:39.399
00:09:08.089                             : en:00:09:08.089
00:18:03.332                             : en:00:18:03.332
00:24:04.943                             : en:00:24:04.943
00:31:46.029                             : en:00:31:46.029
00:33:52.989                             : en:00:33:52.989
00:39:31.578                             : en:00:39:31.578
00:47:18.210                             : en:00:47:18.210
00:51:47.396                             : en:00:51:47.396
00:54:58.629                             : en:00:54:58.629
01:03:34.394                             : en:01:03:34.394
01:08:18.344                             : en:01:08:18.344
01:16:34.548                             : en:01:16:34.548
01:24:30.565                             : en:01:24:30.565
01:34:39.924                             : en:01:34:39.924
01:37:54.327                             : en:01:37:54.327
01:48:59.867                             : en:01:48:59.867
01:52:11.516                             : en:01:52:11.516

:ss:






:download:

Quote








File Leeched & Uploaded From




Don't walk as you are king, walk as you don't care who the king is....!!
Never argue with an idiot. They drag you down to their level and then beat you with experience?

Share this topic on FacebookShare this topic on GoogleShare this topic on MySpaceShare this topic on TwitterShare this topic on Yahoo




Don't walk as you are king, walk as you don't care who the king is....!!

Tags:
 

Related Topics





Back to top