+ ShareSpark.net »  :::: Bollywood Zone » Bollywood Movies (Original Rips)
|- [18+] Un-freedom (2015) Banned in India - Web Rip - XviD - [1CD] - Team IcTv


[18+] Un-freedom (2015) Banned in India - Web Rip - XviD - [1CD] - Team IcTv

0 Members and 1 Guest are viewing this topic.

June 13, 2015, 02:08:28 PM
  • Conqueror
  • Elite Member
  • *****
  • Topic Author
  • Thank You: 208
  • Reputation: 80
  • Activity:
    0%
  • Country: us
  • Posts: 422
  • Topics: 239
  • Join Date: Apr 2014
  • EDM Addict
Un-freedom (2015) Banned in India - Web Rip - XviD - [1CD] - Team IcTv







All Credit Goes To Intellect Clever & IcTv
Sample Within Torrent


Movie Info
Year : 2015
Cast : Victor Banerjee, Adil Hussain, Bhanu Uday
Video: XviD
Audio : MP3
Genre : Crime, Drama, Romance
Subtitles : NONE
Language : HIndi/English :
Runtime : 1hr 43min xx
Source : Team IcTv

Format : AVI
Format/Info : Audio Video Interleave
File size : 695 MiB
Duration : 1h 43mn
Overall bit rate : 940 Kbps

Video
ID : 0
Format : MPEG-4 Visual
Format profile : Advanced [email protected]
Format settings, BVOP : 2
Format settings, QPel : No
Format settings, GMC : No warppoints
Format settings, Matrix : Default (H.263)
Codec ID : XVID
Codec ID/Hint : XviD
Duration : 1h 43mn
Bit rate : 806 Kbps
Width : 640 pixels
Height : 272 pixels
Display aspect ratio : 2.35:1
Frame rate : 23.976 fps
Color space : YUV
Chroma subsampling : 4:2:0
Bit depth : 8 bits
Scan type : Progressive
Compression mode : Lossy
Bits/(Pixel*Frame) : 0.193
Stream size : 596 MiB (86%)
Writing library : XviD 1.2.1 (UTC 2008-12-04)

Audio
ID : 1
Format : MPEG Audio
Format version : Version 1
Format profile : Layer 3
Mode : Joint stereo
Mode extension : MS Stereo
Codec ID : 55
Codec ID/Hint : MP3
Duration : 1h 43mn
Bit rate mode : Constant
Bit rate : 128 Kbps
Channel(s) : 2 channels
Sampling rate : 48.0 KHz
Compression mode : Lossy
Stream size : 94.7 MiB (14%)
























:sample:





:download:

Quote














 :note:

Quote
Its based on some Lesbian story that's why its banned in India.
Language is Hindi/English.

Quote
If You're Reading This & You liked my post Then Don't Forget To Hit Thank You/Add Reputation.

Share this topic on FacebookShare this topic on GoogleShare this topic on MySpaceShare this topic on TwitterShare this topic on Yahoo

« Last Edit: June 13, 2015, 02:12:14 PM by STIFLER »


Quote
If You're Reading This & You liked my post Then Don't Forget To Hit Thank You/Add Reputation.

June 13, 2015, 03:10:01 PM
Reply #1
  • Senior Member
  • ***
  • Thank You: 50
  • Reputation: 16
  • Activity:
    0%
  • Country: in
  • Posts: 213
  • Topics: 78
  • Join Date: Mar 2015
  • ShareSpark Member
Thanx but already posted by me



But thanx for xtra links
« Last Edit: June 13, 2015, 03:23:33 PM by DJ Hunk »

November 13, 2017, 09:30:00 PM
Reply #2
  • Begginer
  • **
  • Thank You: 0
  • Reputation: 2
  • Activity:
    5.2%
  • Country: in
  • Posts: 92
  • Topics: 2
  • Join Date: Dec 2016
  • ShareSpark Member

Tags:
 

Related Topics





Back to top