+ ShareSpark.net »  :::: Hollywood Zone » Hollywood Movies (Pre Releases)
|- How to Be a Latin Lover 2017 480p HD-TS x264-CPG


How to Be a Latin Lover 2017 480p HD-TS x264-CPG

0 Members and 1 Guest are viewing this topic.

June 04, 2017, 09:39:49 AM
  • Team SSX
  • Hot Member
  • ***
  • Topic Author
  • Thank You: 95
  • Reputation: 15
  • Activity:
    100%
  • Country: in
  • Posts: 553
  • Topics: 543
  • Join Date: Mar 2017
  • ShareSpark Member

How to Be a Latin Lover 2017 480p HD-TS x264-CPG



IMDB:-
Code: [Select]
http://www.imdb.com/title/tt4795124/
Plot:-

Finding himself dumped after 25 years of marriage, a man who made a career of seducing rich older women must move in with his estranged sister, where he begins to learn the value of family.
Director: Ken Marino
Writers: Chris Spain, Jon Zack
Stars: Eugenio Derbez, Salma Hayek, Rob Lowe

Quote
Format                                   : Matroska
Format version                           : Version 4 / Version 2
File size                                : 1.83 GiB
Duration                                 : 1 h 49 min
Overall bit rate mode                    : Variable
Overall bit rate                         : 2 398 kb/s
Encoded date                             : UTC 2017-06-03 10:27:56
Writing application                      : mkvmerge v9.9.0 ('Pick Up') 64bit
Writing library                          : libebml v1.3.4 + libmatroska v1.4.5

Video
ID                                       : 1
Format                                   : AVC
Format/Info                              : Advanced Video Codec
Format profile                           : [email protected]
Format settings, CABAC                   : Yes
Format settings, ReFrames                : 4 frames
Codec ID                                 : V_MPEG4/ISO/AVC
Duration                                 : 1 h 49 min
Bit rate mode                            : Variable
Bit rate                                 : 2 200 kb/s
Maximum bit rate                         : 62.5 Mb/s
Width                                    : 712 pixels
Height                                   : 408 pixels
Display aspect ratio                     : 16:9
Frame rate mode                          : Constant
Frame rate                               : 29.970 (30000/1001) FPS
Color space                              : YUV
Chroma subsampling                       : 4:2:0
Bit depth                                : 8 bits
Scan type                                : Progressive
Bits/(Pixel*Frame)                       : 0.253
Stream size                              : 1.68 GiB (92%)
Writing library                          : x264 core 148 r2744 b97ae06

Audio
ID                                       : 2
Format                                   : MPEG Audio
Format version                           : Version 1
Format profile                           : Layer 3
Codec ID                                 : A_MPEG/L3
Codec ID/Hint                            : MP3
Duration                                 : 1 h 49 min
Bit rate mode                            : Constant
Bit rate                                 : 192 kb/s
Channel(s)                               : 2 channels
Sampling rate                            : 44.1 kHz
Frame rate                               : 38.281 FPS (1152 spf)
Compression mode                         : Lossy
Delay relative to video                  : 109 ms
Stream size                              : 150 MiB (8%)
Writing library                          : LAME3.99.5
Default                                  : Yes
Forced                                   : No

Screenshots:-





DIRECT DOWNLOAD FAST:-
Code: [Select]
https://clicknupload.org/5kw9binxaihl
(OR)
http://rapidgator.net/file/345d07707a1e7c6edb9ddddcc5c06b90/How_to_Be_a_Latin_Lover_2017_HD-TS_x264-CPG.mkv.html

If you like my post, don't forget to say Thanks.
Buy Premium Account & Support me to post more stuff for you.
[/b]

Share this topic on FacebookShare this topic on GoogleShare this topic on MySpaceShare this topic on TwitterShare this topic on Yahoo

« Last Edit: June 04, 2017, 09:40:34 AM by exdking »



Tags:
 

Related Topics





Back to top