+ ShareSpark.net »  :::: Hollywood Zone » Hollywood Movies (Pre Releases)
|- Wonder Woman (2017) 480p V2 Uncut HD-TS 580Mb x264 English [DRG]


Wonder Woman (2017) 480p V2 Uncut HD-TS 580Mb x264 English [DRG]

0 Members and 1 Guest are viewing this topic.

June 07, 2017, 06:40:58 AM
  • Team SSX
  • Hot Member
  • ***
  • Topic Author
  • Thank You: 95
  • Reputation: 15
  • Activity:
    100%
  • Country: in
  • Posts: 553
  • Topics: 543
  • Join Date: Mar 2017
  • ShareSpark Member

Wonder Woman (2017) 480p V2 Uncut HD-TS 580Mb x264 English [DRG]



IMDB:-
Code: [Select]
http://www.imdb.com/title/tt0451279
Plot:-

Before she was Wonder Woman she was Diana, princess of the Amazons, trained warrior. When a pilot crashes and tells of conflict in the outside world, she leaves home to fight a war to end all wars, discovering her full powers and true destiny.
Director: Patty Jenkins
Writers: Allan Heinberg (screenplay), Zack Snyder (story by)
Stars: Gal Gadot, Chris Pine, Robin Wright

Quote
Format                                   : MPEG-4
Format profile                           : Base Media
Codec ID                                 : isom (isom/iso2/avc1/mp41)
File size                                : 576 MiB
Duration                                 : 2 h 10 min
Overall bit rate                         : 618 kb/s
Writing application                      : Lavf57.56.100

Video
ID                                       : 1
Format                                   : AVC
Format/Info                              : Advanced Video Codec
Format profile                           : [email protected]
Format settings, CABAC                   : Yes
Format settings, ReFrames                : 3 frames
Codec ID                                 : avc1
Codec ID/Info                            : Advanced Video Coding
Duration                                 : 2 h 10 min
Bit rate                                 : 512 kb/s
Width                                    : 720 pixels
Height                                   : 312 pixels
Display aspect ratio                     : 2.35:1
Frame rate mode                          : Constant
Frame rate                               : 29.970 (30000/1001) FPS
Color space                              : YUV
Chroma subsampling                       : 4:2:0
Bit depth                                : 8 bits
Scan type                                : Progressive
Bits/(Pixel*Frame)                       : 0.076
Stream size                              : 479 MiB (83%)
Writing library                          : x264 core 148 r2643 5c65704

Audio
ID                                       : 2
Format                                   : AAC
Format/Info                              : Advanced Audio Codec
Format profile                           : LC
Codec ID                                 : 40
Duration                                 : 2 h 10 min
Bit rate mode                            : Constant
Bit rate                                 : 96.0 kb/s
Channel(s)                               : 2 channels
Channel positions                        : Front: L R
Sampling rate                            : 48.0 kHz
Frame rate                               : 46.875 FPS (1024 spf)
Compression mode                         : Lossy
Stream size                              : 89.4 MiB (16%)
Default                                  : Yes
Alternate group                          : 1

Screenshots:-







DIRECT DOWNLOAD FAST:-
Code: [Select]
https://clicknupload.org/ix4lyiv6b8vq
(OR)
http://rapidgator.net/file/0017a683734c4e44104cbfe96c1fbda7/Wonder_Woman_2017_480p.mp4.html
(OR)
https://estream.to/5xl2ttfr7861.html
(OR)
https://streamcherry.com/f/csqktmstbttnalal/Wonder_Woman_2017_480p_mp4

If you like my post, don't forget to say Thanks.
[/b]

Share this topic on FacebookShare this topic on GoogleShare this topic on MySpaceShare this topic on TwitterShare this topic on Yahoo




Tags:
 

Related Topics

  Subject / Started by Replies Last post
1 Replies
346 Views
Last post June 11, 2017, 08:48:47 PM
by ~DoSANJiT
1 Replies
428 Views
Last post June 15, 2017, 02:31:49 PM
by neelt
0 Replies
536 Views
Last post June 24, 2017, 03:34:53 PM
by exdking
0 Replies
401 Views
Last post June 24, 2017, 07:01:33 PM
by exdking
0 Replies
366 Views
Last post July 01, 2017, 05:33:26 AM
by exdking




Back to top