+ ShareSpark.net »  :::: Hollywood Zone » Hollywood Movies (Pre Releases)
|- Wonder Woman 2017 HDCAM lazydayz 550MB


Wonder Woman 2017 HDCAM lazydayz 550MB

0 Members and 1 Guest are viewing this topic.

June 07, 2017, 07:21:06 AM
  • Addic7ed
  • Legend Member
  • ****
  • Topic Author
  • Thank You: 1937
  • Reputation: 340
  • Activity:
    100%
  • Country: in
  • Posts: 2146
  • Topics: 1808
  • Join Date: Jan 2014
  • ShareSpark Member
Wonder Woman 2017 HDCAM lazydayz 550MB





Format                                   : MPEG-4
Format profile                           : Base Media
Codec ID                                 : isom
File size                                : 547 MiB
Duration                                 : 2h 10mn
Overall bit rate                         : 586 Kbps
Writing application                      : Lavf57.20.100

Video
ID                                       : 1
Format                                   : AVC
Format/Info                              : Advanced Video Codec
Format profile                           : [email protected]
Format settings, CABAC                   : Yes
Format settings, ReFrames                : 3 frames
Codec ID                                 : avc1
Codec ID/Info                            : Advanced Video Coding
Duration                                 : 2h 10mn
Bit rate                                 : 512 Kbps
Width                                    : 640 pixels
Height                                   : 260 pixels
Display aspect ratio                     : 2.462
Frame rate mode                          : Constant
Frame rate                               : 30.167 fps
Color space                              : YUV
Chroma subsampling                       : 4:2:0
Bit depth                                : 8 bits
Scan type                                : Progressive
Bits/(Pixel*Frame)                       : 0.102
Stream size                              : 480 MiB (88%)
Writing library                          : x264 core 142 r2491 24e4fed
Encoding settings                        : cabac=1 / ref=3 / deblock=1:0:0 / analyse=0x3:0x113 / me=hex / subme=7 / psy=1 / psy_rd=1.00:0.00 / mixed_ref=1 / me_range=16 / chroma_me=1 / trellis=1 / 8x8dct=1 / cqm=0 / deadzone=21,11 / fast_pskip=1 / chroma_qp_offset=-2 / threads=4 / lookahead_threads=4 / sliced_threads=1 / slices=4 / nr=0 / decimate=1 / interlaced=0 / bluray_compat=0 / constrained_intra=0 / bframes=0 / weightp=2 / keyint=250 / keyint_min=25 / scenecut=40 / intra_refresh=0 / rc=abr / mbtree=0 / bitrate=512 / ratetol=1.0 / qcomp=0.60 / qpmin=0 / qpmax=69 / qpstep=4 / ip_ratio=1.40 / aq=1:1.00

Audio
ID                                       : 2
Format                                   : AAC
Format/Info                              : Advanced Audio Codec
Format profile                           : LC
Codec ID                                 : 40
Duration                                 : 2h 10mn
Duration_LastFrame                       : -16ms
Bit rate mode                            : Constant
Bit rate                                 : 64.5 Kbps
Channel(s)                               : 2 channels
Channel positions                        : Front: L R
Sampling rate                            : 48.0 KHz
Compression mode                         : Lossy
Stream size                              : 60.3 MiB (11%)


:ss:





:download:

Quote











Don't walk as you are king, walk as you don't care who the king is....!!
Never argue with an idiot. They drag you down to their level and then beat you with experience?

Share this topic on FacebookShare this topic on GoogleShare this topic on MySpaceShare this topic on TwitterShare this topic on Yahoo




Don't walk as you are king, walk as you don't care who the king is....!!

Tags:
 

Related Topics

  Subject / Started by Replies Last post
0 Replies
386 Views
Last post June 16, 2012, 09:49:35 AM
by MEJ
0 Replies
304 Views
Last post June 07, 2017, 12:42:07 AM
by exdking
1 Replies
310 Views
Last post June 07, 2017, 07:32:01 AM
by Rάήνίјάч1234
0 Replies
274 Views
Last post June 07, 2017, 02:30:12 PM
by RoBi007
0 Replies
444 Views
Last post June 07, 2017, 08:56:16 PM
by exdking




Back to top