+ ShareSpark.net »  :::: Hollywood Zone » Hollywood Movies (Pre Releases)
|- Once Upon a Time in Venice (2017) 480p HD-CAM x264 380Mb Rus -KOSHARA


Once Upon a Time in Venice (2017) 480p HD-CAM x264 380Mb Rus -KOSHARA

0 Members and 1 Guest are viewing this topic.

June 16, 2017, 11:18:31 AM
  • Team SSX
  • Hot Member
  • ***
  • Topic Author
  • Thank You: 96
  • Reputation: 15
  • Activity:
    38%
  • Country: in
  • Posts: 570
  • Topics: 560
  • Join Date: Mar 2017
  • ShareSpark Member


Once Upon a Time in Venice (2017) 480p HD-CAM x264 380Mb Rus -KOSHARA



IMDB:-
Code: [Select]
http://www.imdb.com/title/tt4694544/
Plot:-

A Los Angeles detective seeks out the ruthless gang that stole his dog.
Director: Mark Cullen
Writers: Mark Cullen, Robb Cullen
Stars: Jason Momoa, Bruce Willis, Elisabeth Röhm |

Quote
Format                                   : MPEG-4
Format profile                           : Base Media
Codec ID                                 : isom (isom/iso2/avc1/mp41)
File size                                : 378 MiB
Duration                                 : 1 h 30 min
Overall bit rate                         : 582 kb/s
Writing application                      : Lavf57.41.100

Video
ID                                       : 1
Format                                   : AVC
Format/Info                              : Advanced Video Codec
Format profile                           : [email protected]
Format settings, CABAC                   : Yes
Format settings, ReFrames                : 3 frames
Codec ID                                 : avc1
Codec ID/Info                            : Advanced Video Coding
Duration                                 : 1 h 30 min
Bit rate                                 : 512 kb/s
Width                                    : 720 pixels
Height                                   : 304 pixels
Display aspect ratio                     : 2.35:1
Frame rate mode                          : Constant
Frame rate                               : 29.970 (30000/1001) FPS
Color space                              : YUV
Chroma subsampling                       : 4:2:0
Bit depth                                : 8 bits
Scan type                                : Progressive
Bits/(Pixel*Frame)                       : 0.078
Stream size                              : 331 MiB (88%)
Writing library                          : x264 core 148 r2643 5c65704

Audio
ID                                       : 2
Format                                   : AAC
Format/Info                              : Advanced Audio Codec
Format profile                           : LC
Codec ID                                 : 40
Duration                                 : 1 h 30 min
Bit rate mode                            : Constant
Bit rate                                 : 64.4 kb/s
Channel(s)                               : 2 channels
Channel positions                        : Front: L R
Sampling rate                            : 48.0 kHz
Frame rate                               : 46.875 FPS (1024 spf)
Compression mode                         : Lossy
Stream size                              : 41.8 MiB (11%)
Default                                  : Yes
Alternate group                          : 1

Screenshots:- 







DIRECT DOWNLOAD FAST:-
Code: [Select]
https://clicknupload.org/0hup99naxz81
(OR)
http://rapidgator.net/file/7c51fb71cebe206bdbb73a79b62fc109/Once.Upon.a.Time.in.Venice.2017.mp4.html

WATCH ONLINE/DOWNLOAD:-
Code: [Select]
https://thevideo.me/ig1ju4vggevq
https://estream.to/6nye7bevnfqs.html
https://streamcherry.com/f/ffetoakafopklqap/Once_Upon_a_Time_in_Venice_2017_mp4
https://www.flashx.tv/swb43v2sggba.html

If you like my post, don't forget to say Thanks.
[/b]

Share this topic on FacebookShare this topic on GoogleShare this topic on MySpaceShare this topic on TwitterShare this topic on Yahoo

« Last Edit: June 16, 2017, 11:19:59 AM by exdking »



Tags:
 

Related Topics





Back to top