+ ShareSpark.net »  :::: Dubbed Zone (Dubbed English in Hindi) » English Movies Dubbed in Hindi » Animation Movies
|- The Fox And The Hound 2 2006 720p Esub BluRay Dual Audio English Hindi GOPISAHI



The Fox And The Hound 2 2006 720p Esub BluRay Dual Audio English Hindi GOPISAHI

0 Members and 1 Guest are viewing this topic.

February 14, 2018, 06:16:32 AM
  • Addic7ed
  • Special Member
  • ****
  • Topic Author
  • Thank You: 327
  • Reputation: 76
  • Activity:
    61.4%
  • Country: in
  • Posts: 657
  • Topics: 615
  • Join Date: Oct 2013
  • ShareSpark Member

Format                         : Matroska
Format version                 : Version 4 / Version 2
File size                      : 339 MiB
Duration                       : 1 h 9 min
Overall bit rate               : 683 kb/s
Movie name                     : The Fox And The Hound 2 2006 GOPISAHI


Video
ID                             : 1
Format                         : AVC
Format/Info                    : Advanced Video Codec
Format profile                 : [email protected]
Format settings                : CABAC / 16 Ref Frames
Format settings, CABAC         : Yes
Format settings, ReFrames      : 16 frames
Codec ID                       : V_MPEG4/ISO/AVC
Duration                       : 1 h 9 min
Bit rate                       : 500 kb/s
Width                          : 1 280 pixels
Height                         : 720 pixels
Display aspect ratio           : 16:9
Frame rate mode                : Constant
Frame rate                     : 23.976 (24000/1001) FPS
Color space                    : YUV
Chroma subsampling             : 4:2:0
Bit depth                      : 8 bits
Scan type                      : Progressive
Bits/(Pixel*Frame)             : 0.023
Stream size                    : 248 MiB (73%)
Title                          : GOPISAHI
Writing library                : x264 core 155 r2893 b00bcaf
Language                       : English
Default                        : Yes
Forced                         : No
Color range                    : Limited
Color primaries                : BT.709
Transfer characteristics       : BT.709
Matrix coefficients            : BT.709

Audio #1
ID                             : 2
Format                         : AAC
Format/Info                    : Advanced Audio Codec
Format profile                 : LC
Codec ID                       : A_AAC-2
Duration                       : 1 h 9 min
Bit rate                       : 89.9 kb/s
Channel(s)                     : 6 channels
Channel positions              : Front: L C R, Side: L R, LFE
Sampling rate                  : 44.1 kHz
Frame rate                     : 43.066 FPS (1024 SPF)
Compression mode               : Lossy
Stream size                    : 44.6 MiB (13%)
Title                          : GOPISAHI
Language                       : Hindi
Default                        : Yes
Forced                         : No

Audio #2
ID                             : 3
Format                         : AAC
Format/Info                    : Advanced Audio Codec
Format profile                 : LC
Codec ID                       : A_AAC-2
Duration                       : 1 h 9 min
Bit rate                       : 90.6 kb/s
Channel(s)                     : 6 channels
Channel positions              : Front: L C R, Side: L R, LFE
Sampling rate                  : 44.1 kHz
Frame rate                     : 43.066 FPS (1024 SPF)
Compression mode               : Lossy
Stream size                    : 44.9 MiB (13%)
Title                          : GOPISAHI
Language                       : English
Default                        : No
Forced                         : No

Text
Language                       : English















Share this topic on FacebookShare this topic on GoogleShare this topic on MySpaceShare this topic on TwitterShare this topic on Yahoo

« Last Edit: February 14, 2018, 06:23:36 AM by jattsahi2 »



Tags:
 

Related Topics

  Subject / Started by Replies Last post
0 Replies
184 Views
Last post August 31, 2017, 11:59:53 AM
by jattsahi2
1 Replies
416 Views
Last post August 31, 2017, 07:42:10 PM
by iampankajrawat
0 Replies
419 Views
Last post September 03, 2017, 06:57:31 AM
by jattsahi2
0 Replies
571 Views
Last post September 12, 2017, 10:25:42 AM
by jattsahi2
0 Replies
354 Views
Last post November 17, 2017, 01:57:13 PM
by jattsahi2




Back to top