+ ShareSpark.net »  :::: Hollywood Zone » TV Shows » WWE
|- wwe.smackdown.2018.02.13.720p.hdtv.x264-kyr


Niki 25% Off

wwe.smackdown.2018.02.13.720p.hdtv.x264-kyr

0 Members and 1 Guest are viewing this topic.

February 14, 2018, 09:15:04 AM
  • *****************
  • Head Admin
  • Legend Member
  • *****
  • Topic Author
  • Thank You: 6219
  • Reputation: 2724
  • Activity:
    100%
  • Country: in
  • Posts: 18229
  • Topics: 10779
  • Join Date: Mar 2012
  • The Time Is Now......
wwe.smackdown.2018.02.13.720p.hdtv.x264-kyr

General


Format                                   : Matroska
Format version                           : Version 4 / Version 2
File size                                : 2.98 GiB
Duration                                 : 1 h 21 min
Overall bit rate                         : 5 241 kb/s


Video
ID                                       : 1
Format                                   : AVC
Format/Info                              : Advanced Video Codec
Format profile                           : [email protected]
Format settings                          : CABAC / 5 Ref Frames
Format settings, CABAC                   : Yes
Format settings, RefFrames               : 5 frames
Codec ID                                 : V_MPEG4/ISO/AVC
Duration                                 : 1 h 21 min
Bit rate                                 : 4 853 kb/s
Width                                    : 1 280 pixels
Height                                   : 720 pixels
Display aspect ratio                     : 16:9
Frame rate mode                          : Constant
Frame rate                               : 59.940 (60000/1001) FPS
Color space                              : YUV
Chroma subsampling                       : 4:2:0
Bit depth                                : 8 bits
Scan type                                : Progressive
Bits/(Pixel*Frame)                       : 0.088
Stream size                              : 2.76 GiB (93%)
Language                                 : English
Default                                  : Yes
Forced                                   : No


Audio
ID                                       : 2
Format                                   : AC-3
Format/Info                              : Audio Coding 3
Codec ID                                 : A_AC3
Duration                                 : 1 h 21 min
Bit rate mode                            : Constant
Bit rate                                 : 384 kb/s
Channel(s)                               : 6 channels
Channel positions                        : Front: L C R, Side: L R, LFE
Sampling rate                            : 48.0 kHz
Frame rate                               : 31.250 FPS (1536 SPF)
Bit depth                                : 16 bits
Compression mode                         : Lossy
Stream size                              : 224 MiB (7%)
Service kind                             : Complete Main
Default                                  : Yes
Forced                                   : No









Share this topic on FacebookShare this topic on GoogleShare this topic on MySpaceShare this topic on TwitterShare this topic on Yahoo

« Last Edit: February 14, 2018, 09:19:51 AM by -Ð@Rk.ÐèVi£- »


Thanks given by:


Tags:
 

Related Topics

  Subject / Started by Replies Last post
0 Replies
241 Views
Last post January 31, 2018, 09:47:00 AM
by -Ð@Rk.ÐèVi£-
0 Replies
249 Views
Last post January 31, 2018, 10:20:18 AM
by -Ð@Rk.ÐèVi£-
0 Replies
258 Views
Last post February 07, 2018, 09:18:06 AM
by -Ð@Rk.ÐèVi£-
0 Replies
259 Views
Last post February 07, 2018, 12:35:23 PM
by -Ð@Rk.ÐèVi£-
0 Replies
159 Views
Last post March 01, 2018, 08:29:27 AM
by -Ð@Rk.ÐèVi£-



Back to top