+ ShareSpark.net »  :::: Bollywood Zone » Bollywood Movies (Original Rips) » High Resolution Movies
|- Kaalakaandi (2018) 1080P HDRIP x264 AAC ~ Ranvijay

DTH Recharges 20% Back

Kaalakaandi (2018) 1080P HDRIP x264 AAC ~ Ranvijay

0 Members and 1 Guest are viewing this topic.

May 23, 2018, 06:06:18 PM
  • Global Moderator
  • Legend Member
  • *****
  • Topic Author
  • Thank You: 7261
  • Reputation: 1589
  • Activity:
    100%
  • Country: in
  • Posts: 4431
  • Topics: 3692
  • Join Date: Jan 2014
  • ıllıllı ѕмoĸιng ιѕ good ғor нealтн ıllıllı :)


Kaalakaandi (2018) 1080P HDRIP x264 AAC ~ Ranvijay

Source :- Lottery @DTOne

Buy RDP Online


Quote
Format                                   : Matroska
Format version                           : Version 4 / Version 2
File size                                : 2.53 GiB
Duration                                 : 1 h 44 min
Overall bit rate                         : 3 466 kb/s
Movie name                               : Kaalakaandi (2018) 1080P HDRIP x264 AAC ~ Ranvijay

Video
ID                                       : 1
Format                                   : AVC
Duration                                 : 1 h 44 min
Bit rate                                 : 3 361 kb/s
Width                                    : 1 920 pixels
Height                                   : 816 pixels
Display aspect ratio                     : 2.35:1
Frame rate mode                          : Constant
Frame rate                               : 25.000 FPS
Stream size                              : 2.48 GiB (98%)
Title                                    : ~Ranvijay~
Default                                  : Yes
Forced                                   : No

Audio
ID                                       : 2
Format                                   : AAC
Format/Info                              : Advanced Audio Codec
Format profile                           : LC
Codec ID                                 : A_AAC-2
Duration                                 : 1 h 44 min
Bit rate                                 : 61.4 kb/s
Channel(s)                               : 2 channels
Channel positions                        : Front: L R
Sampling rate                            : 48.0 kHz
Frame rate                               : 46.875 FPS (1024 SPF)
Compression mode                         : Lossy
Delay relative to video                  : -80 ms
Stream size                              : 45.8 MiB (2%)
Title                                    : ~Ranvijay~
Language                                 : Hindi
Default                                  : Yes
Forced                                   : No














:download:

Quote

File Leeched & Uploaded From




Don't walk as you are king, walk as you don't care who the king is....!!
Never argue with an idiot. They drag you down to their level and then beat you with experience?

Share this topic on FacebookShare this topic on GoogleShare this topic on MySpaceShare this topic on TwitterShare this topic on Yahoo




Don't walk as you are king, walk as you don't care who the king is....!!

Thanks given by:


May 23, 2018, 06:12:53 PM
Reply #1
  • Team SSX
  • Elite Forces
  • ***
  • Thank You: 1194
  • Reputation: 459
  • Activity:
    100%
  • Country: np
  • Posts: 1282
  • Topics: 793
  • Join Date: Jul 2016
  • ShareSpark Member

Tags:
 

Related Topics




Back to top